Tags
Language
Tags

Jodorowsky's Dune (2013)

Posted By: Tavaz
1080p (FullHD) / BDRip IMDb
Jodorowsky's Dune (2013)

Jodorowsky's Dune (2013)
BDRip | MKV | 1920x1080 | English | H264 @ 5760 kbps | AC-3 @ 448 kbps | 1 h 30 min | 3.91 GiB
Subtitles: English
Genre: Documentary, Drama

Shot in France, England, Switzerland and the United States, this documentary covers director Alejandro Jodorowsky (El Topo, Holy Mountain, Santa Sangre) and his 1974 Quixotic attempt to adapt the seminal sci-fi novel Dune into a feature film. After spending 2 years and millions of dollars, the massive undertaking eventually fell apart, but the artists Jodorowsky assembled for the legendary project continued to work together. This group of artists, or his “warriors” as Jodorowsky named them, went on to define modern sci-fi cinema with such films as Alien, Blade Runner, Star Wars and Total Recall.

e20a8d041828597038c81208ac772700.mkv (3.9 GB)



General
Complete name : ./e20a8d041828597038c81208ac772700.mkv
Format : Matroska
Format version : Version 4 / Version 2
File size : 3.91 GiB
Duration : 1 h 30 min
Overall bit rate : 6 209 kb/s
Encoded date : UTC 2020-05-27 22:12:21 / UTC 2020-05-27T10:24:45Z
Writing application : mkvmerge v38.0.0 ('The Silent Type') 64-bit
Writing library : libebml v1.3.9 + libmatroska v1.5.2 / Lavf57.7.2

Video
ID : 1
Format : AVC
Format/Info : Advanced Video Codec
Format profile : High@L4
Format settings : CABAC / 4 Ref Frames
Format settings, CABAC : Yes
Format settings, RefFrames : 4 frames
Codec ID : V_MPEG4/ISO/AVC
Duration : 1 h 30 min
Bit rate : 5 760 kb/s
Width : 1 920 pixels
Height : 1 080 pixels
Display aspect ratio : 16:9
Frame rate mode : Constant
Frame rate : 23.976 (24000/1001) FPS
Color space : YUV
Chroma subsampling : 4:2:0
Bit depth : 8 bits
Scan type : Progressive
Bits/(Pixel*Frame) : 0.116
Stream size : 3.55 GiB (91%)
Writing library : x264 core 155 r2901 7d0ff22
Encoding settings : cabac=1 / ref=4 / deblock=1:-3:-3 / analyse=0x3:0x133 / me=umh / subme=9 / psy=1 / psy_rd=1.10:0.25 / mixed_ref=1 / me_range=32 / chroma_me=1 / trellis=2 / 8x8dct=1 / cqm=0 / deadzone=6,6 / fast_pskip=1 / chroma_qp_offset=-4 / threads=34 / lookahead_threads=3 / sliced_threads=0 / nr=0 / decimate=1 / interlaced=0 / bluray_compat=0 / constrained_intra=0 / bframes=6 / b_pyramid=2 / b_adapt=2 / b_bias=0 / direct=3 / weightb=1 / open_gop=0 / weightp=2 / keyint=240 / keyint_min=24 / scenecut=40 / intra_refresh=0 / rc_lookahead=40 / rc=2pass / mbtree=1 / bitrate=5760 / ratetol=1.0 / qcomp=0.60 / qpmin=0 / qpmax=69 / qpstep=4 / cplxblur=20.0 / qblur=0.5 / vbv_maxrate=20000 / vbv_bufsize=25000 / nal_hrd=none / filler=0 / ip_ratio=1.40 / aq=1:1.00
Default : Yes
Forced : No
Color range : Limited
Color primaries : BT.709
Transfer characteristics : BT.709
Matrix coefficients : BT.709
Statistics Tags Issue : mkvmerge v38.0.0 ('The Silent Type') 64-bit 2020-05-27 22:12:21 / mkvmerge v38.0.0 ('The Silent Type') 64-bit 2020-05-27 22:12:21 / UTC 2020-05-27T10:24:45Z
FromStats_BitRate : 5758894
FromStats_Duration : 01:30:14.409000000
FromStats_FrameCount : 129816
FromStats_StreamSize : 3897626101

Audio
ID : 2
Format : AC-3
Format/Info : Audio Coding 3
Format settings, Endianness : Big
Codec ID : A_AC3
Duration : 1 h 30 min
Bit rate mode : Constant
Bit rate : 448 kb/s
Channel(s) : 6 channels
Channel positions : Front: L C R, Side: L R, LFE
Sampling rate : 48.0 kHz
Frame rate : 31.250 FPS (1536 SPF)
Bit depth : 16 bits
Compression mode : Lossy
Stream size : 289 MiB (7%)
Title : Surround
Language : English
Service kind : Complete Main
Default : Yes
Forced : No
Statistics Tags Issue : mkvmerge v38.0.0 ('The Silent Type') 64-bit 2020-05-27 22:12:21 / mkvmerge v38.0.0 ('The Silent Type') 64-bit 2020-05-27 22:12:21 / UTC 2020-05-27T10:24:45Z
FromStats_BitRate : 448000
FromStats_Duration : 01:30:14.400000000
FromStats_FrameCount : 169200
FromStats_StreamSize : 303206400

Text
ID : 3
Format : UTF-8
Codec ID : S_TEXT/UTF8
Codec ID/Info : UTF-8 Plain Text
Language : English
Default : Yes
Forced : No
Statistics Tags Issue : mkvmerge v38.0.0 ('The Silent Type') 64-bit 2020-05-27 22:12:21 / mkvmerge v38.0.0 ('The Silent Type') 64-bit 2020-05-27 22:12:21 / UTC 2020-05-27T10:24:45Z
FromStats_BitRate : 80
FromStats_Duration : 01:27:43.216000000
FromStats_FrameCount : 1212
FromStats_StreamSize : 53271

Menu
00:00:00.000 : :Chapter 1
00:04:28.727 : :Chapter 2
00:09:28.777 : :Chapter 3
00:14:57.814 : :Chapter 4
00:20:34.108 : :Chapter 5
00:26:16.742 : :Chapter 6
00:33:01.980 : :Chapter 7
00:37:43.595 : :Chapter 8
00:45:04.577 : :Chapter 9
00:53:12.815 : :Chapter 10
00:56:40.731 : :Chapter 11
01:01:42.199 : :Chapter 12
01:07:46.271 : :Chapter 13
01:13:49.634 : :Chapter 14
01:17:41.282 : :Chapter 15
01:25:50.312 : :Chapter 16





Jodorowsky's Dune (2013)


Jodorowsky's Dune (2013)


Jodorowsky's Dune (2013)


Jodorowsky's Dune (2013)


Jodorowsky's Dune (2013)