Tags
Language
Tags

Jon Stevens - Starlight (2017)

Posted By: notbanned
Jon Stevens - Starlight (2017)

Jon Stevens - Starlight (2017)
HDTV | 1280x720 | .MKV/AVC @ 2604 Kbps | 43mn 5s | 940 MiB
Audio: English AC3 384 kbps, 2 channels | Subs: None
Genre: Documentary

An intimate portrait of rock icon, Jon Stevens. From the wreckage of his tumultuous personal life, Jon finds solace and exorcises demons recording.


General
Unique ID : 220723272355432342736342703219055382075 (0xA60DC186F03B48EE8CA62EF3246DCE3B)
Complete name : Jon.Stevens.Starlight.720p.mkv
Format : Matroska
Format version : Version 4 / Version 2
File size : 940 MiB
Duration : 43mn 5s
Overall bit rate : 3 049 Kbps

Video
ID : 1
Format : AVC
Format/Info : Advanced Video Codec
Format profile : High@L4.1
Format settings, CABAC : Yes
Format settings, ReFrames : 5 frames
Codec ID : V_MPEG4/ISO/AVC
Duration : 43mn 5s
Bit rate : 2 604 Kbps
Width : 1 280 pixels
Height : 720 pixels
Display aspect ratio : 16:9
Frame rate mode : Constant
Frame rate : 23.976 fps
Color space : YUV
Chroma subsampling : 4:2:0
Bit depth : 8 bits
Scan type : Progressive
Bits/(Pixel*Frame) : 0.118
Stream size : 803 MiB (85%)
Writing library : x264 core 148 r2762 90a61ec
Encoding settings : cabac=1 / ref=5 / deblock=1:-2:-2 / analyse=0x3:0x113 / me=hex / subme=8 / psy=1 / psy_rd=1.00:0.00 / mixed_ref=1 / me_range=16 / chroma_me=1 / trellis=2 / 8x8dct=1 / cqm=0 / deadzone=21,11 / fast_pskip=1 / chroma_qp_offset=-2 / threads=12 / lookahead_threads=2 / sliced_threads=0 / nr=0 / decimate=1 / interlaced=0 / bluray_compat=0 / constrained_intra=0 / bframes=3 / b_pyramid=2 / b_adapt=1 / b_bias=0 / direct=3 / weightb=1 / open_gop=0 / weightp=2 / keyint=250 / keyint_min=23 / scenecut=40 / intra_refresh=0 / rc_lookahead=50 / rc=crf / mbtree=1 / crf=20.0 / qcomp=0.60 / qpmin=0 / qpmax=69 / qpstep=4 / ip_ratio=1.40 / aq=1:1.00
Language : English
Default : Yes
Forced : No
DURATION : 00:43:05.023000000
NUMBER_OF_FRAMES : 61979
NUMBER_OF_BYTES : 860537293
_STATISTICS_WRITING_APP : mkvmerge v10.0.0 ('To Drown In You') 64bit
_STATISTICS_WRITING_DATE_UTC : 2017-04-17 13:34:23
_STATISTICS_TAGS : BPS DURATION NUMBER_OF_FRAMES NUMBER_OF_BYTES

Audio
ID : 2
Format : AC-3
Format/Info : Audio Coding 3
Mode extension : CM (complete main)
Format settings, Endianness : Big
Codec ID : A_AC3
Duration : 43mn 5s
Bit rate mode : Constant
Bit rate : 384 Kbps
Channel(s) : 2 channels
Channel positions : Front: L R
Sampling rate : 48.0 KHz
Compression mode : Lossy
Stream size : 118 MiB (13%)
Default : Yes
Forced : No


Screenshots:

Jon Stevens - Starlight (2017)

Jon Stevens - Starlight (2017)

Jon Stevens - Starlight (2017)

Jon Stevens - Starlight (2017)