Tags
Language
Tags

Judi Dench: My Passion For Trees (2017)

Posted By: notbanned
1080p (FullHD) / HDTV IMDb
Judi Dench: My Passion For Trees (2017)

Judi Dench: My Passion For Trees (2017)
HDTV | 1920x1080 | .MKV/AVC @ 4684 Kbps | 51 min 50 s | 1.79 GiB
Audio: English MP2 256 kbps, 2 channels | Subs: None
Genre: Documentary

Iconic actress Dame Judi Dench is still a hardworking Hollywood star into her 80s. She has always loved trees but now with failing eyesight she's taking time out to discover what really makes them tick.

General
Unique ID : 226566918955588483599721767078678215807 (0xAA73338C7CAFDBEC77AE8545F60BBC7F)
Complete name : Judi.Dench.My.Passion.For.Trees.2017.1080p.mkv
Format : Matroska
Format version : Version 4 / Version 2
File size : 1.79 GiB
Duration : 51 min 50 s
Overall bit rate : 4 942 kb/s

Video
ID : 1
Format : AVC
Format/Info : Advanced Video Codec
Format profile : High@L4
Format settings, CABAC : Yes
Format settings, ReFrames : 4 frames
Format settings, GOP : M=3, N=24
Codec ID : V_MPEG4/ISO/AVC
Duration : 51 min 50 s
Bit rate : 4 684 kb/s
Width : 1 920 pixels
Height : 1 080 pixels
Display aspect ratio : 16:9
Frame rate mode : Constant
Frame rate : 25.000 FPS
Standard : Component
Color space : YUV
Chroma subsampling : 4:2:0
Bit depth : 8 bits
Scan type : MBAFF
Scan type, store method : Interleaved fields
Scan order : Top Field First
Bits/(Pixel*Frame) : 0.090
Stream size : 1.70 GiB (95%)
Default : Yes
Forced : No
Color range : Limited

Audio
ID : 2
Format : MPEG Audio
Format version : Version 1
Format profile : Layer 2
Codec ID : A_MPEG/L2
Codec ID/Hint : MP2
Duration : 51 min 50 s
Bit rate mode : Constant
Bit rate : 256 kb/s
Channel(s) : 2 channels
Sampling rate : 48.0 kHz
Frame rate : 41.667 FPS (1152 spf)
Compression mode : Lossy
Stream size : 94.9 MiB (5%)
Language : English
Default : Yes
Forced : No


Screenshots:

Judi Dench: My Passion For Trees (2017)

Judi Dench: My Passion For Trees (2017)

Judi Dench: My Passion For Trees (2017)

Judi Dench: My Passion For Trees (2017)