Julie (2011)

Posted By: Rare-1
Julie (2011)

Julie (2011)
DVDRip | MKV | 720 x 460 | AVC @ 1915 Kbps | 74 min | 1.09 Gb
Audio: Danish AC3 2.0 @ 192 Kbps | Subs: Danish, English, Finnish, Norwegian, Swedish (embedded)
Genre: Drama | Denmark

Julie, a young passionate tennis star, falls in love with her trainer. She longs for love and affirmation, but also to be able to free herself from the demands of her ambitious and bankrupt father. It all turns into a power game that she will lose control of, and that have consequences that she never could have imagined.

IMDB 3.9/10 from 59 users

Director: Linda Wendel
Writer: August Strindberg (story), Linda Wendel (screenplay)
Actors: Birgitte Hjort Sørensen, Rolf Hansen, Trine Appel, Jesper Christensen
Rated: N/A
Runtime: 74 min

Julie (2011)

Julie (2011)

Julie (2011)

Julie (2011)


Julie (2011)


More Screenshots:

Julie (2011)



General
Unique ID : 251148564968263208337234470281049866527 (0xBCF17444E4A5D403AE51E1B95801011F)
Complete name : F:\Julie 2011\julie.mkv
Format : Matroska
Format version : Version 4 / Version 2
File size : 1.09 GiB
Duration : 1h 14mn
Overall bit rate : 2 109 Kbps
Encoded date : UTC 2015-01-29 15:30:16
Writing application : mkvmerge v7.4.0 ('Circles') 64bit built on Dec 12 2014 12:19:56
Writing library : libebml v1.3.0 + libmatroska v1.4.1
DURATION : 01:12:02.872000000
NUMBER_OF_FRAMES : 575
NUMBER_OF_BYTES : 21786
_STATISTICS_WRITING_APP : mkvmerge v7.4.0 ('Circles') 64bit built on Dec 12 2014 12:19:56
_STATISTICS_WRITING_DATE_UTC : 2015-01-29 15:30:16
_STATISTICS_TAGS : BPS DURATION NUMBER_OF_FRAMES NUMBER_OF_BYTES

Video
ID : 1
Format : AVC
Format/Info : Advanced Video Codec
Format profile : High@L4.1
Format settings, CABAC : Yes
Format settings, ReFrames : 16 frames
Codec ID : V_MPEG4/ISO/AVC
Duration : 1h 14mn
Bit rate : 1 915 Kbps
Width : 720 pixels
Height : 460 pixels
Display aspect ratio : 2.226
Frame rate mode : Constant
Frame rate : 25.000 fps
Color space : YUV
Chroma subsampling : 4:2:0
Bit depth : 8 bits
Scan type : Progressive
Bits/(Pixel*Frame) : 0.231
Stream size : 995 MiB (89%)
Writing library : x264 core 142 r2491 24e4fed
Encoding settings : cabac=1 / ref=16 / deblock=1:-2:-2 / analyse=0x3:0x133 / me=umh / subme=10 / psy=1 / psy_rd=1.20:0.25 / mixed_ref=1 / me_range=24 / chroma_me=1 / trellis=2 / 8x8dct=1 / cqm=0 / deadzone=21,11 / fast_pskip=0 / chroma_qp_offset=-4 / threads=6 / lookahead_threads=1 / sliced_threads=0 / nr=0 / decimate=0 / interlaced=0 / bluray_compat=0 / constrained_intra=0 / bframes=8 / b_pyramid=2 / b_adapt=2 / b_bias=0 / direct=3 / weightb=1 / open_gop=0 / weightp=2 / keyint=250 / keyint_min=25 / scenecut=40 / intra_refresh=0 / rc_lookahead=60 / rc=2pass / mbtree=1 / bitrate=1915 / ratetol=1.0 / qcomp=0.60 / qpmin=0 / qpmax=69 / qpstep=4 / cplxblur=20.0 / qblur=0.5 / ip_ratio=1.40 / aq=1:0.80
Language : English
Default : Yes
Forced : No
DURATION : 01:14:12.120000000
NUMBER_OF_FRAMES : 111303
NUMBER_OF_BYTES : 1065784287
_STATISTICS_WRITING_APP : mkvmerge v7.4.0 ('Circles') 64bit built on Dec 12 2014 12:19:56
_STATISTICS_WRITING_DATE_UTC : 2015-01-29 15:30:16
_STATISTICS_TAGS : BPS DURATION NUMBER_OF_FRAMES NUMBER_OF_BYTES

Audio
ID : 2
Format : AC-3
Format/Info : Audio Coding 3
Mode extension : CM (complete main)
Format settings, Endianness : Big
Codec ID : A_AC3
Duration : 1h 14mn
Bit rate mode : Constant
Bit rate : 192 Kbps
Channel(s) : 2 channels
Channel positions : Front: L R
Sampling rate : 48.0 KHz
Bit depth : 16 bits
Compression mode : Lossy
Delay relative to video : 1s 200ms
Stream size : 102 MiB (9%)
Language : Danish
Default : Yes
Forced : No

Text #1
ID : 3
Format : UTF-8
Codec ID : S_TEXT/UTF8
Codec ID/Info : UTF-8 Plain Text
Language : Danish
Default : No
Forced : No

Text #2
ID : 4
Format : UTF-8
Codec ID : S_TEXT/UTF8
Codec ID/Info : UTF-8 Plain Text
Language : English
Default : Yes
Forced : No

Text #3
ID : 5
Format : UTF-8
Codec ID : S_TEXT/UTF8
Codec ID/Info : UTF-8 Plain Text
Language : Finnish
Default : No
Forced : No

Text #4
ID : 6
Format : UTF-8
Codec ID : S_TEXT/UTF8
Codec ID/Info : UTF-8 Plain Text
Language : Norwegian
Default : No
Forced : No

Text #5
ID : 7
Format : UTF-8
Codec ID : S_TEXT/UTF8
Codec ID/Info : UTF-8 Plain Text
Language : Swedish
Default : No
Forced : No


Many Thanks to Original uploader.


For More Rare Movies Check out my blog!


Download Links :

No Mirrors Please