Tags
Language
Tags

BBC - Julius Caesar's Greatest Battle (2004)

Posted By: Tutorial
BBC - Julius Caesar's Greatest Battle (2004)

BBC - Julius Caesar's Greatest Battle (2004)
DVB | 688 x 384 | .MKV/AVC @ 1917 Kbps | 49mn 12s | English AC-3 192 Kbps, 2 channels | 744 MB
Genre: Documentary, History

In 52BC, the future of Rome and Gaul - and that of their peoples - hangs in the balance. It will be determined in three great encounters. The battles are the culmination of a momentous personal duel between two great leaders. A duel, which this documentary recreates.
The name of one leader, Julius Caesar, will resound through history. His rival a young chieftain called Vercingetorix is virtually unknown. Vercingetorix's people, the Gauls, are history's victims. In a bitter eight year campaign, through what is known as France, Caesar killed a million people, took a million more hostage and destroyed 800 cities.
Julius Caesar's Greatest Battle is told through the eyes of Mark Corby a Roman historian with a professional admiration for Caesar and Neil Faulkner an archaeologist for whom Rome's great achievement was no more than robbery with violence. Mark takes on the role of Caesar and Neil that of Vercingetorix in this gripping 50 minute documentary.

also You can look my other last: History-posts

General
Unique ID : 186369074301118483425868160570202891932 (0x8C3560CA88BBEA4CBC8A4DE9C5D5A69C)
Complete name : BBC.Julius.Caesars.Greatest.Battle.mkv
Format : Matroska
Format version : Version 1
File size : 744 MiB
Duration : 49mn 12s
Overall bit rate : 2 112 Kbps
Encoded date : UTC 2007-08-02 02:02:26
Writing application : mkvmerge v2.0.2 ('You're My Flame') built on Feb 21 2007 23:40:55
Writing library : libebml v0.7.7 + libmatroska v0.8.1

Video
ID : 1
Format : AVC
Format/Info : Advanced Video Codec
Format profile : High@L5.1
Format settings, CABAC : Yes
Format settings, ReFrames : 8 frames
Codec ID : V_MPEG4/ISO/AVC
Duration : 49mn 12s
Bit rate : 1 917 Kbps
Width : 688 pixels
Height : 384 pixels
Display aspect ratio : 16:9
Frame rate : 25.000 fps
Color space : YUV
Chroma subsampling : 4:2:0
Bit depth : 8 bits
Scan type : Progressive
Bits/(Pixel*Frame) : 0.290
Stream size : 661 MiB (89%)
Writing library : x264 core 56 svn-667
Encoding settings : cabac=1 / ref=5 / deblock=1:-1:0 / analyse=0x3:0x133 / me=umh / subme=6 / brdo=1 / mixed_ref=1 / me_range=16 / chroma_me=1 / trellis=1 / 8x8dct=1 / cqm=2 / deadzone=21,11 / chroma_qp_offset=0 / threads=1 / nr=0 / decimate=1 / mbaff=0 / bframes=3 / b_pyramid=1 / b_adapt=1 / b_bias=0 / direct=3 / wpredb=1 / bime=1 / keyint=250 / keyint_min=25 / scenecut=40 / rc=2pass / bitrate=1917 / ratetol=1.0 / rceq='blurCplx^(1-qComp)' / qcomp=0.60 / qpmin=10 / qpmax=51 / qpstep=4 / cplxblur=20.0 / qblur=0.5 / ip_ratio=1.40 / pb_ratio=1.30
Language : English
Default : Yes
Forced : No

Audio
ID : 2
Format : AC-3
Format/Info : Audio Coding 3
Mode extension : CM (complete main)
Codec ID : A_AC3
Duration : 49mn 12s
Bit rate mode : Constant
Bit rate : 192 Kbps
Channel(s) : 2 channels
Channel positions : Front: L R
Sampling rate : 48.0 KHz
Bit depth : 16 bits
Compression mode : Lossy
Stream size : 67.6 MiB (9%)
Default : Yes
Forced : No
Screenshots

BBC - Julius Caesar's Greatest Battle (2004)

BBC - Julius Caesar's Greatest Battle (2004)

BBC - Julius Caesar's Greatest Battle (2004)

BBC - Julius Caesar's Greatest Battle (2004)

Welcome to my blog - daily update!

BBC - Julius Caesar's Greatest Battle (2004)