Tags
Language
Tags

The Lost World: Jurassic Park (1997)

Posted By: Tavaz
1080p (FullHD) / BDRip IMDb
The Lost World: Jurassic Park (1997)

The Lost World: Jurassic Park (1997)
BDRip | MOV | 1920x1040 | English | H264 @ 3994 kbps | AC-3 @ 448 kbps | 2 h 8 min | 4.00 GiB
Subtitles: English
Genre: Action, Adventure, Science Fiction

Four years after Jurassic Park's genetically bred dinosaurs ran amok, multimillionaire John Hammond shocks chaos theorist Ian Malcolm by revealing that he has been breeding more beasties at a secret location. Malcolm, his paleontologist ladylove and a wildlife videographer join an expedition to document the lethal lizards' natural behavior in this action-packed thriller.

ae5a05305572bcab9c317a7e11ae9934.mp4 (4.0 GB)



General
Complete name : ./ae5a05305572bcab9c317a7e11ae9934.mp4
Format : MPEG-4
Format profile : Base Media / Version 2
Codec ID : mp42 (mp42/isom/avc1)
File size : 4.00 GiB
Duration : 2 h 8 min
Overall bit rate mode : Variable
Overall bit rate : 4 451 kb/s
Movie name : Jurassic.Park.II.The.Lost.World.1997.Remastered.1080p.BluRay.H264.AC3.DD5.1
Encoded date : UTC 2020-06-13 01:18:23
Tagged date : UTC 2020-06-13 01:29:56
Writing application : DVDFab 11.0.4.2
Cover : Yes

Video
ID : 1
Format : AVC
Format/Info : Advanced Video Codec
Format profile : Main@L4
Format settings : CABAC / 2 Ref Frames
Format settings, CABAC : Yes
Format settings, RefFrames : 2 frames
Format settings, GOP : M=1, N=24
Codec ID : avc1
Codec ID/Info : Advanced Video Coding
Duration : 2 h 8 min
Bit rate mode : Variable
Bit rate : 3 994 kb/s
Maximum bit rate : 6 058 kb/s
Width : 1 920 pixels
Height : 1 040 pixels
Display aspect ratio : 1.85:1
Frame rate mode : Constant
Frame rate : 23.976 (24000/1001) FPS
Color space : YUV
Chroma subsampling : 4:2:0
Bit depth : 8 bits
Scan type : Progressive
Bits/(Pixel*Frame) : 0.083
Stream size : 3.59 GiB (90%)
Encoded date : UTC 2020-06-13 01:18:23
Tagged date : UTC 2020-06-13 01:29:56
Color primaries : BT.709
Transfer characteristics : BT.709
Matrix coefficients : BT.709

Audio
ID : 2
Format : AC-3
Format/Info : Audio Coding 3
Format settings, Endianness : Big
Codec ID : ac-3
Duration : 2 h 8 min
Bit rate mode : Constant
Bit rate : 448 kb/s
Channel(s) : 6 channels
Channel positions : Front: L C R, Side: L R, LFE
Sampling rate : 48.0 kHz
Frame rate : 31.250 FPS (1536 SPF)
Bit depth : 16 bits
Compression mode : Lossy
Stream size : 412 MiB (10%)
Title : English (ac3 5.1)
Language : English
Service kind : Complete Main
Default : Yes
Alternate group : 1
Encoded date : UTC 2020-06-13 01:18:23
Tagged date : UTC 2020-06-13 01:29:56

Text
ID : 3
Format : VobSub
Codec ID : mp4s-E0
Codec ID/Info : The same subtitle format used on DVDs
Duration : 2 h 1 min
Bit rate mode : Variable
Bit rate : 7 163 b/s
Maximum bit rate : 3 742 Mb/s
Stream size : 6.22 MiB (0%)
Language : English
Default : Yes
Forced : No
Alternate group : 2
Encoded date : UTC 2020-06-13 01:18:23
Tagged date : UTC 2020-06-13 01:29:18





The Lost World: Jurassic Park (1997)


The Lost World: Jurassic Park (1997)


The Lost World: Jurassic Park (1997)


The Lost World: Jurassic Park (1997)


The Lost World: Jurassic Park (1997)