Kill Katie Malone (2010)

Posted By: Tavaz
Kill Katie Malone (2010)

Kill Katie Malone (2010)
DVDRip | AVI | 720x368 | MP4V-ES @ 871 kbps | AC-3 @ 448 kbps | 1 h 34 min | 893 MiB
Subs: Dutch
Genre: Horror, Thriller

College students and best friends Ginger Matheson, Jim Duncan, and Kyle "Dixie" Canning, pool their cash to buy a "ghost" in an online auction. The three think it's all a goof, but once they open up the antique box to examine their "treasure," they unleash the vengeful spirit of an Irish servant girl who has been wreaking havoc on her owners throughout the generations

Kill Katie Malone (2010) RETAIL DD 5.1 900 MB SRT.avi (892.5 MB)



General
Complete name : ./Kill Katie Malone (2010) RETAIL DD 5.1 900 MB SRT/Kill Katie Malone (2010) RETAIL DD 5.1 900 MB SRT.avi
Format : AVI
Format/Info : Audio Video Interleave
File size : 893 MiB
Duration : 1 h 34 min
Overall bit rate : 1 326 kb/s
Writing application : VirtualDubMod 1.5.10.2 (build 2542/release)
Writing library : VirtualDubMod build 2542/release

Video
ID : 0
Format : MPEG-4 Visual
Format profile : Advanced Simple@L5
Format settings : BVOP1
Format settings, BVOP : 1
Format settings, QPel : No
Format settings, GMC : No warppoints
Format settings, Matrix : Default (H.263)
Muxing mode : Packed bitstream
Codec ID : XVID
Codec ID/Hint : XviD
Duration : 1 h 34 min
Bit rate : 871 kb/s
Width : 720 pixels
Height : 368 pixels
Display aspect ratio : 1.957
Frame rate : 25.000 FPS
Color space : YUV
Chroma subsampling : 4:2:0
Bit depth : 8 bits
Scan type : Progressive
Compression mode : Lossy
Bits/(Pixel*Frame) : 0.132
Stream size : 587 MiB (66%)
Writing library : XviD 1.2.1 (UTC 2008-12-04)

Audio
ID : 1
Format : AC-3
Format/Info : Audio Coding 3
Format settings, Endianness : Big
Codec ID : 2000
Duration : 1 h 34 min
Bit rate mode : Constant
Bit rate : 448 kb/s
Channel(s) : 6 channels
Channel positions : Front: L C R, Side: L R, LFE
Sampling rate : 48.0 kHz
Frame rate : 31.250 FPS (1536 SPF)
Bit depth : 16 bits
Compression mode : Lossy
Stream size : 300 MiB (34%)
Alignment : Split accross interleaves
Interleave, duration : 64 ms (1.60 video frames)
Interleave, preload duration : 500 ms
Service kind : Complete Main





Kill Katie Malone (2010)


Kill Katie Malone (2010)


Kill Katie Malone (2010)


Kill Katie Malone (2010)


Kill Katie Malone (2010)