Tags
Language
Tags

Kill Switch (2017)

Posted By: Tavaz
SD / BDRip IMDb
Kill Switch (2017)

Kill Switch (2017)
BRRip | AVI | 720x302 | MP4V-ES @ 1812 kbps | AC-3 @ 448 kbps | 1 h 31 min | 1.46 GiB
Subtitles: Hebrew
Genre: Action, Sci-Fi, Thriller

A pilot battles to save his family and the planet after an experiment for unlimited energy goes wrong.




General
Complete name : ./Kill.Switch.2017.BRRip.HebSubs.XviD.AC3-Uploadil.avi
Format : AVI
Format/Info : Audio Video Interleave
File size : 1.46 GiB
Duration : 1 h 31 min
Overall bit rate : 2 270 kb/s
Writing library : VirtualDub build 35491/release

Video
ID : 0
Format : MPEG-4 Visual
Format profile : Advanced Simple@L5
Format settings : BVOP2
Format settings, BVOP : 2
Format settings, QPel : No
Format settings, GMC : No warppoints
Format settings, Matrix : Default (H.263)
Muxing mode : Packed bitstream
Codec ID : XVID
Codec ID/Hint : XviD
Duration : 1 h 31 min
Bit rate : 1 813 kb/s
Width : 720 pixels
Height : 302 pixels
Display aspect ratio : 16:9
Frame rate : 23.976 (24000/1001) FPS
Color space : YUV
Chroma subsampling : 4:2:0
Bit depth : 8 bits
Scan type : Progressive
Compression mode : Lossy
Bits/(Pixel*Frame) : 0.348
Stream size : 1.16 GiB (80%)
Writing library : XviD 64

Audio
ID : 1
Format : AC-3
Format/Info : Audio Coding 3
Format settings, Endianness : Big
Codec ID : 2000
Duration : 1 h 31 min
Bit rate mode : Constant
Bit rate : 448 kb/s
Channel(s) : 6 channels
Channel positions : Front: L C R, Side: L R, LFE
Sampling rate : 48.0 kHz
Frame rate : 31.250 FPS (1536 SPF)
Bit depth : 16 bits
Compression mode : Lossy
Stream size : 294 MiB (20%)
Alignment : Aligned on interleaves
Interleave, duration : 42 ms (1.00 video frame)
Interleave, preload duration : 512 ms
Service kind : Complete Main





Kill Switch (2017)


Kill Switch (2017)


Kill Switch (2017)


Kill Switch (2017)


Kill Switch (2017)