Tags
Language
Tags
January 2023
Su Mo Tu We Th Fr Sa
1 2 3 4 5 6 7
8 9 10 11 12 13 14
15 16 17 18 19 20 21
22 23 24 25 26 27 28
29 30 31 1 2 3 4

Kill Hitler Luck Of The Devil (2015)

Posted By: notbanned
1080p (FullHD) / HDTV IMDb
Kill Hitler Luck Of The Devil  (2015)

Kill Hitler Luck Of The Devil (2015)
HDTV | 1920x1080 | .MKV/AVC @ 7161 Kbps | 44 min 11 s | 2.29 GiB
Audio: English MP2 256 kbps, 2 channels | Subs: None
Genre: Documentary | History

On April 30th, 1945, Hitler committed suicide in his bunker in Berlin. On that day, he managed to do what many others had tried to do for 20 years but failed. Between 1921 and 1944, no fewer than 30 attacks were launched against the Führer…by workers, unionists, aristocrats, politicians and high-ranking military men. All had one aim—to rid the world of the biggest criminal of all time. The film explores how Hitler survived all these attempts on his life, and how the fate of Europe and countless lives may have been very different if it hadn't been for the luck of the devil.

General
Unique ID : 299204635182176593731862820356005782796 (0xE118B775B2BA028F68A81B42E3DF650C)
Complete name : Kill.Hitler.Luck.Of.The.Devil.2015.1080p.mkv
Format : Matroska
Format version : Version 4 / Version 2
File size : 2.29 GiB
Duration : 44 min 11 s
Overall bit rate : 7 420 kb/s

Video
ID : 1
Format : AVC
Format/Info : Advanced Video Codec
Format profile : High@L4
Format settings, CABAC : Yes
Format settings, ReFrames : 4 frames
Format settings, GOP : M=4, N=12
Codec ID : V_MPEG4/ISO/AVC
Duration : 44 min 11 s
Bit rate : 7 161 kb/s
Width : 1 920 pixels
Height : 1 080 pixels
Display aspect ratio : 16:9
Frame rate mode : Variable
Frame rate : 50.000 FPS
Original frame rate : 25.000 FPS
Standard : Component
Color space : YUV
Chroma subsampling : 4:2:0
Bit depth : 8 bits
Scan type : Interlaced
Scan type, store method : Separated fields
Scan order : Top Field First
Bits/(Pixel*Frame) : 0.069
Stream size : 2.21 GiB (96%)
Default : Yes
Forced : No
Color range : Limited
Color primaries : BT.709
Transfer characteristics : BT.709
Matrix coefficients : BT.709

Audio
ID : 2
Format : MPEG Audio
Format version : Version 1
Format profile : Layer 2
Codec ID : A_MPEG/L2
Codec ID/Hint : MP2
Duration : 44 min 11 s
Bit rate mode : Constant
Bit rate : 256 kb/s
Channel(s) : 2 channels
Sampling rate : 48.0 kHz
Frame rate : 41.667 FPS (1152 spf)
Compression mode : Lossy
Stream size : 80.9 MiB (3%)
Language : English
Default : Yes
Forced : No


Screenshots:

Kill Hitler Luck Of The Devil  (2015)

Kill Hitler Luck Of The Devil  (2015)

Kill Hitler Luck Of The Devil  (2015)

Kill Hitler Luck Of The Devil  (2015)