Killing Zoe (1993) [Directors Cut]

Posted By: Without
Killing Zoe (1993) [Directors Cut]

Killing Zoe (1993) [Directors Cut]
BRRip 720p | MP4 | 1280x688 | AVC@1500 kb/s | English AAC@224 kb/s | 2 channels | 1 h 39 min | 1.19 GB
BRRip 1080p | MP4 | 1920x1032 | AVC@2500 kb/s | English AAC@224 kb/s | 2 channels | 1 h 39 min | 1.88 GB
Genre: Crime, Thriller

Zed has only just arrived in the beautiful Paris and already he's up to no good. Having just slept with a call girl, he spends a night on the town with his dangerous friends. They all decide to rob a bank the following day. There's only one problem: Zed's call-girl, Zoe, just happens to work at the bank which is to be robbed!

IMDB - 2 wins & 1 nomination


General
Complete name : D:\Torrents\Killing.Zoe.1993.Directors.Cut.720p.BluRay.H264.AAC-DTS-RARBG\Killing.Zoe.1993.Directors.Cut.720p.BluRay.H264.AAC-DTS-RARBG.mp4
Format : MPEG-4
Format profile : Base Media
Codec ID : isom (isom/iso2/avc1/mp41)
File size : 1.20 GiB
Duration : 1 h 39 min
Overall bit rate : 1 731 kb/s
Encoded date : UTC 2017-01-10 20:43:03
Tagged date : UTC 2017-01-10 20:43:03
Writing application : Lavf56.40.101

Video
ID : 1
Format : AVC
Format/Info : Advanced Video Codec
Format profile : High@L4.1
Format settings, CABAC : Yes
Format settings, ReFrames : 4 frames
Codec ID : avc1
Codec ID/Info : Advanced Video Coding
Duration : 1 h 39 min
Bit rate : 1 500 kb/s
Width : 1 280 pixels
Height : 688 pixels
Display aspect ratio : 1.85:1
Frame rate mode : Constant
Frame rate : 23.976 (23976/1000) FPS
Color space : YUV
Chroma subsampling : 4:2:0
Bit depth : 8 bits
Scan type : Progressive
Bits/(Pixel*Frame) : 0.071
Stream size : 1.04 GiB (87%)
Writing library : x264 core 148 r2638M 7599210
Encoding settings : cabac=1 / ref=4 / deblock=1:-1:-1 / analyse=0x3:0x113 / me=umh / subme=9 / psy=1 / psy_rd=1.00:0.15 / mixed_ref=1 / me_range=24 / chroma_me=1 / trellis=2 / 8x8dct=1 / cqm=0 / deadzone=21,11 / fast_pskip=1 / chroma_qp_offset=-3 / threads=32 / lookahead_threads=4 / sliced_threads=0 / nr=0 / decimate=1 / interlaced=0 / bluray_compat=0 / constrained_intra=0 / bframes=3 / b_pyramid=2 / b_adapt=2 / b_bias=0 / direct=3 / weightb=1 / open_gop=0 / weightp=2 / keyint=250 / keyint_min=25 / scenecut=40 / intra_refresh=0 / rc_lookahead=50 / rc=2pass / mbtree=1 / bitrate=1500 / ratetol=1.0 / qcomp=0.60 / qpmin=0 / qpmax=69 / qpstep=4 / cplxblur=20.0 / qblur=0.5 / vbv_maxrate=31250 / vbv_bufsize=31250 / nal_hrd=none / filler=0 / ip_ratio=1.40 / aq=3:1.00
Encoded date : UTC 2017-01-10 20:43:03
Tagged date : UTC 2017-01-10 20:43:03

Audio
ID : 2
Format : AAC
Format/Info : Advanced Audio Codec
Format profile : LC
Codec ID : 40
Duration : 1 h 39 min
Bit rate mode : Constant
Bit rate : 224 kb/s
Channel(s) : 2 channels
Channel(s)_Original : 6 channels
Channel positions : Front: L C R, Side: L R, LFE
Sampling rate : 48.0 kHz
Frame rate : 46.875 FPS (1024 spf)
Compression mode : Lossy
Stream size : 159 MiB (13%)
Language : English
Default : Yes
Alternate group : 1
Encoded date : UTC 2017-01-10 20:43:03
Tagged date : UTC 2017-01-10 20:43:03

General
Complete name : D:\Torrents\Killing.Zoe.1993.Directors.Cut.1080p.BluRay.H264.AAC-DTS-RARBG\Killing.Zoe.1993.Directors.Cut.1080p.BluRay.H264.AAC-DTS-RARBG.mp4
Format : MPEG-4
Format profile : Base Media
Codec ID : isom (isom/iso2/avc1/mp41)
File size : 1.89 GiB
Duration : 1 h 39 min
Overall bit rate : 2 732 kb/s
Encoded date : UTC 2017-01-10 18:04:25
Tagged date : UTC 2017-01-10 18:04:25
Writing application : Lavf56.40.101

Video
ID : 1
Format : AVC
Format/Info : Advanced Video Codec
Format profile : High@L4.1
Format settings, CABAC : Yes
Format settings, ReFrames : 4 frames
Codec ID : avc1
Codec ID/Info : Advanced Video Coding
Duration : 1 h 39 min
Bit rate : 2 500 kb/s
Width : 1 920 pixels
Height : 1 032 pixels
Display aspect ratio : 1.85:1
Frame rate mode : Constant
Frame rate : 23.976 (23976/1000) FPS
Color space : YUV
Chroma subsampling : 4:2:0
Bit depth : 8 bits
Scan type : Progressive
Bits/(Pixel*Frame) : 0.053
Stream size : 1.73 GiB (92%)
Writing library : x264 core 148 r2638M 7599210
Encoding settings : cabac=1 / ref=4 / deblock=1:-1:-1 / analyse=0x3:0x113 / me=umh / subme=9 / psy=1 / psy_rd=1.00:0.15 / mixed_ref=1 / me_range=24 / chroma_me=1 / trellis=2 / 8x8dct=1 / cqm=0 / deadzone=21,11 / fast_pskip=1 / chroma_qp_offset=-3 / threads=32 / lookahead_threads=4 / sliced_threads=0 / nr=0 / decimate=1 / interlaced=0 / bluray_compat=0 / constrained_intra=0 / bframes=3 / b_pyramid=2 / b_adapt=2 / b_bias=0 / direct=3 / weightb=1 / open_gop=0 / weightp=2 / keyint=250 / keyint_min=25 / scenecut=40 / intra_refresh=0 / rc_lookahead=50 / rc=2pass / mbtree=1 / bitrate=2500 / ratetol=1.0 / qcomp=0.60 / qpmin=0 / qpmax=69 / qpstep=4 / cplxblur=20.0 / qblur=0.5 / vbv_maxrate=31250 / vbv_bufsize=31250 / nal_hrd=none / filler=0 / ip_ratio=1.40 / aq=3:1.00
Encoded date : UTC 2017-01-10 18:04:25
Tagged date : UTC 2017-01-10 18:04:25

Audio
ID : 2
Format : AAC
Format/Info : Advanced Audio Codec
Format profile : LC
Codec ID : 40
Duration : 1 h 39 min
Bit rate mode : Constant
Bit rate : 224 kb/s
Channel(s) : 2 channels
Channel(s)_Original : 6 channels
Channel positions : Front: L C R, Side: L R, LFE
Sampling rate : 48.0 kHz
Frame rate : 46.875 FPS (1024 spf)
Compression mode : Lossy
Stream size : 159 MiB (8%)
Language : English
Default : Yes
Alternate group : 1
Encoded date : UTC 2017-01-10 18:04:25
Tagged date : UTC 2017-01-10 18:04:25


BRRip 720p Screenshots

Killing Zoe (1993) [Directors Cut]

Killing Zoe (1993) [Directors Cut]

Killing Zoe (1993) [Directors Cut]


BRRip 1080p Screenshots

Killing Zoe (1993) [Directors Cut]

Killing Zoe (1993) [Directors Cut]

Killing Zoe (1993) [Directors Cut]


Come Visit My Blog (•‿•)