Tags
Language
Tags

King of the Gypsies (1978)

Posted By: Tavaz
1080p (FullHD) / BDRip IMDb
King of the Gypsies (1978)

King of the Gypsies (1978)
BDRip | MKV | 1920x1080 | English | H264 @ 10500 kbps | DTS @ 1509 kbps | 1 h 52 min | 9.41 GiB
Genre: Drama

Zharko, leader of the Romanis in NYC, passes his position of leadership on to his unwilling grandson, Dave, leading to infighting between Dave and his father.

King.of.The.Gypsies.1978.1080p.BluRay.x264-DiVULGED=884a8e3ae74e4683bda9f606166cef42.part1.rar (4.9 GB)
King.of.The.Gypsies.1978.1080p.BluRay.x264-DiVULGED=884a8e3ae74e4683bda9f606166cef42.part2.rar (4.6 GB)



General
Unique ID : 216074937488860900718692676501652983340 (0xA28E84EC87511F91B0BE70493A414E2C)
Complete name : ./King.of.The.Gypsies.1978.1080p.BluRay.x264-DiVULGED.mkv
Format : Matroska
Format version : Version 4 / Version 2
File size : 9.41 GiB
Duration : 1 h 52 min
Overall bit rate : 12.0 Mb/s
Encoded date : UTC 2016-05-01 16:29:04 / UTC 2016-04-23T22:29:28Z
Writing application : mkvmerge v8.3.0 ('Over the Horizon') 64bit
Writing library : libebml v1.3.1 + libmatroska v1.4.2 / Lavf55.12.0

Video
ID : 1
Format : AVC
Format/Info : Advanced Video Codec
Format profile : High@L4.1
Format settings : CABAC / 4 Ref Frames
Format settings, CABAC : Yes
Format settings, RefFrames : 4 frames
Codec ID : V_MPEG4/ISO/AVC
Duration : 1 h 52 min
Bit rate : 10.5 Mb/s
Width : 1 920 pixels
Height : 1 080 pixels
Display aspect ratio : 16:9
Frame rate mode : Constant
Frame rate : 23.976 (24000/1001) FPS
Color space : YUV
Chroma subsampling : 4:2:0
Bit depth : 8 bits
Scan type : Progressive
Bits/(Pixel*Frame) : 0.211
Stream size : 8.03 GiB (85%)
Writing library : x264 core 142 r2479 dd79a61
Encoding settings : cabac=1 / ref=3 / deblock=1:-2:-2 / analyse=0x3:0x113 / me=hex / subme=7 / psy=1 / psy_rd=1.00:0.25 / mixed_ref=1 / me_range=16 / chroma_me=1 / trellis=1 / 8x8dct=1 / cqm=0 / deadzone=6,6 / fast_pskip=1 / chroma_qp_offset=-4 / threads=12 / lookahead_threads=2 / sliced_threads=0 / nr=0 / decimate=0 / interlaced=0 / bluray_compat=0 / constrained_intra=0 / bframes=3 / b_pyramid=2 / b_adapt=1 / b_bias=0 / direct=1 / weightb=1 / open_gop=0 / weightp=2 / keyint=240 / keyint_min=24 / scenecut=40 / intra_refresh=0 / rc_lookahead=40 / rc=abr / mbtree=1 / bitrate=10500 / ratetol=1.0 / qcomp=0.80 / qpmin=0 / qpmax=69 / qpstep=4 / vbv_maxrate=62500 / vbv_bufsize=78125 / nal_hrd=none / filler=0 / ip_ratio=1.10 / aq=1:0.50
Default : Yes
Forced : No
Color range : Limited
Color primaries : BT.709
Transfer characteristics : BT.709
Matrix coefficients : BT.709
Statistics Tags Issue : mkvmerge v8.3.0 ('Over the Horizon') 64bit 2016-05-01 16:29:04 / mkvmerge v8.3.0 ('Over the Horizon') 64bit 2016-05-01 16:29:04 / UTC 2016-04-23T22:29:28Z
FromStats_BitRate : 10440509
FromStats_Duration : 01:52:39.559000000
FromStats_FrameCount : 162055
FromStats_StreamSize : 8821655100

Audio
ID : 2
Format : DTS
Format/Info : Digital Theater Systems
Mode : 16
Format settings, Endianness : Big
Codec ID : A_DTS
Duration : 1 h 52 min
Bit rate mode : Constant
Bit rate : 1 509 kb/s
Channel(s) : 2 channels
Channel positions : Front: L R
Sampling rate : 48.0 kHz
Frame rate : 93.750 FPS (512 SPF)
Bit depth : 24 bits
Compression mode : Lossy
Stream size : 1.19 GiB (13%)
Title : Stereo
Language : English
Default : Yes
Forced : No
Statistics Tags Issue : mkvmerge v8.3.0 ('Over the Horizon') 64bit 2016-05-01 16:29:04 / mkvmerge v8.3.0 ('Over the Horizon') 64bit 2016-05-01 16:29:04 / UTC 2016-04-23T22:29:28Z
FromStats_BitRate : 1508999
FromStats_Duration : 01:52:39.638000000
FromStats_FrameCount : 633716
FromStats_StreamSize : 1275036592

Menu
00:00:00.000 : :Chapter 1
00:00:10.760 : :Chapter 2
00:12:39.180 : :Chapter 3
00:28:25.042 : :Chapter 4
00:39:29.789 : :Chapter 5
00:56:12.374 : :Chapter 6
01:13:57.105 : :Chapter 7
01:25:17.534 : :Chapter 8
01:39:01.691 : :Chapter 9
01:52:28.414 : :Chapter 10





King of the Gypsies (1978)


King of the Gypsies (1978)


King of the Gypsies (1978)


King of the Gypsies (1978)


King of the Gypsies (1978)