Subcategories

King Arthur: Legend of the Sword (2017) [3D]

Posted By: JohnSmith
King Arthur: Legend of the Sword (2017) [3D]

King Arthur: Legend of the Sword (2017)
3D HSBS | BDRip 1080p | MKV / AVC@16.6 Mb/s | 1920x1080 | 2h 6mn | 16.4 GB
English: DTS, 1509 kb/s (6 ch); Italian: AC3, 448 kb/s (6 ch) | Subtitles: English, Italian
Genre: Action | Adventure | Drama | Fantasy

Robbed of his birthright, Arthur comes up the hard way in the back alleys of the city. But once he pulls the sword from the stone, he is forced to acknowledge his true legacy - whether he likes it or not.




General
Unique ID : 230779084936099394663359974679073847114 (0xAD9E6F5D948DE61FBA5AA01FE390F74A)
Complete name : A:\King.Arthur.Legend.of.the.Sword.2017.1080p.BluRay.3D.HSBS.mkv
Format : Matroska
Format version : Version 4 / Version 2
File size : 16.4 GiB
Duration : 2 h 6 min
Overall bit rate : 18.6 Mb/s
Encoded date : UTC 2017-08-01 14:20:41
Writing application : mkvmerge v8.3.0 ('Over the Horizon') 64bit
Writing library : libebml v1.3.1 + libmatroska v1.4.2

Video
ID : 1
Format : AVC
Format/Info : Advanced Video Codec
Format profile : High@L4.1
Format settings, CABAC : Yes
Format settings, ReFrames : 2 frames
Codec ID : V_MPEG4/ISO/AVC
Duration : 2 h 6 min
Bit rate : 16.6 Mb/s
Width : 1 920 pixels
Height : 1 080 pixels
Display aspect ratio : 16:9
Frame rate mode : Constant
Frame rate : 23.976 (24000/1001) FPS
Color space : YUV
Chroma subsampling : 4:2:0
Bit depth : 8 bits
Scan type : Progressive
Bits/(Pixel*Frame) : 0.335
Stream size : 14.7 GiB (89%)
Writing library : x264 core
Default : Yes
Forced : No
Color range : Limited
Color primaries : BT.709
Transfer characteristics : BT.709
Matrix coefficients : BT.709

Audio #1
ID : 2
Format : DTS
Format/Info : Digital Theater Systems
Mode : 16
Format settings, Endianness : Big
Codec ID : A_DTS
Duration : 2 h 6 min
Bit rate mode : Constant
Bit rate : 1 509 kb/s
Channel(s) : 6 channels
Channel positions : Front: L C R, Side: L R, LFE
Sampling rate : 48.0 kHz
Frame rate : 93.750 FPS (512 spf)
Bit depth : 16 bits
Compression mode : Lossy
Stream size : 1.33 GiB (8%)
Language : English
Default : Yes
Forced : No

Audio #2
ID : 3
Format : AC-3
Format/Info : Audio Coding 3
Format settings, Endianness : Big
Codec ID : A_AC3
Duration : 2 h 6 min
Bit rate mode : Constant
Bit rate : 448 kb/s
Channel(s) : 6 channels
Channel positions : Front: L C R, Side: L R, LFE
Sampling rate : 48.0 kHz
Frame rate : 31.250 FPS (1536 spf)
Bit depth : 16 bits
Compression mode : Lossy
Stream size : 404 MiB (2%)
Language : Italian
Service kind : Complete Main
Default : No
Forced : No

Text #1
ID : 4
Format : PGS
Muxing mode : zlib
Codec ID : S_HDMV/PGS
Codec ID/Info : Picture based subtitle format used on BDs/HD-DVDs
Duration : 2 h 4 min
Bit rate : 7 732 b/s
Count of elements : 2904
Stream size : 6.87 MiB (0%)
Language : English
Default : No
Forced : No

Text #2
ID : 5
Format : PGS
Muxing mode : zlib
Codec ID : S_HDMV/PGS
Codec ID/Info : Picture based subtitle format used on BDs/HD-DVDs
Duration : 2 h 4 min
Bit rate : 35 b/s
Count of elements : 10
Stream size : 32.0 KiB (0%)
Title : Forced
Language : Italian
Default : No
Forced : No

Text #3
ID : 6
Format : PGS
Muxing mode : zlib
Codec ID : S_HDMV/PGS
Codec ID/Info : Picture based subtitle format used on BDs/HD-DVDs
Duration : 2 h 4 min
Bit rate : 6 681 b/s
Count of elements : 2922
Stream size : 5.96 MiB (0%)
Language : Italian
Default : No
Forced : No

Menu
00:00:00.000 : en:(01)00:00:00:000
00:12:43.220 : en:(02)00:12:43:220
00:21:05.347 : en:(03)00:21:05:347
00:32:32.659 : en:(04)00:32:32:659
00:43:09.378 : en:(05)00:43:09:378
00:56:47.987 : en:(06)00:56:47:987
01:06:48.546 : en:(07)01:06:48:546
01:14:13.031 : en:(08)01:14:13:031
01:23:44.394 : en:(09)01:23:44:394
01:36:36.791 : en:(10)01:36:36:791
01:46:57.244 : en:(11)01:46:57:244
01:58:58.798 : en:(12)01:58:58:798
02:06:13.232 : en:(13)02:06:13:232




Screenshots

King Arthur: Legend of the Sword (2017) [3D]

King Arthur: Legend of the Sword (2017) [3D]

King Arthur: Legend of the Sword (2017) [3D]