Subcategories

King Arthur: Legend of the Sword (2017)

Posted By: JohnSmith
King Arthur: Legend of the Sword (2017)

King Arthur: Legend of the Sword (2017)
BDRip 720p | MKV / AVC@4476 kb/s | 1280x536 | 2h 6mn | 5.28 GB
German (dubbed): DTS, 1509 kb/s (6 ch) | Subtitles: German (forced, full)
Genre: Action | Adventure | Drama | Fantasy

Nach dem Tod seines Vaters Uther Pendragon (Eric Bana) treibt sich der junge Arthur (Charlie Hunnam) mit seiner Bande von Straßenjungen in den Gassen Londons herum. Er hat keine Ahnung, welches königliche Leben ihm eigentlich zustehen würde – bis zu dem Moment, da er das sagenumwobene Schwert Excalibur aus dem Stein zieht. Mit dessen Macht ausgestattet, muss er sich seinen eigenen Dämonen stellen und für sein Volk gegen den tyrannischen Herrscher Vortigern (Jude Law) antreten, der seine Eltern getötet und ihm die Krone gestohlen hat. King Arthur verbündet sich mit dem Widerstand, zu dem auch die geheimnisvolle Mage (Astrid Bergès-Frisbey) gehört, und macht sich daran, seinen Thron zurückzuerobern.




General
Unique ID : 247539153446706946960682880552133043987 (0xBA3A4E8AA658F6D88DEF44135229A713)
Complete name : A:\King.Arthur.Legend.of.the.Sword.2017.German.720p.BluRay.mkv
Format : Matroska
Format version : Version 4 / Version 2
File size : 5.28 GiB
Duration : 2 h 6 min
Overall bit rate : 5 990 kb/s
Encoded date : UTC 2017-08-07 07:51:15
Writing application : mkvmerge v8.3.0 ('Over the Horizon') 64bit
Writing library : libebml v1.3.1 + libmatroska v1.4.2

Video
ID : 1
Format : AVC
Format/Info : Advanced Video Codec
Format profile : High@L4.1
Format settings, CABAC : Yes
Format settings, ReFrames : 5 frames
Codec ID : V_MPEG4/ISO/AVC
Duration : 2 h 6 min
Bit rate : 4 476 kb/s
Width : 1 280 pixels
Height : 536 pixels
Display aspect ratio : 2.40:1
Frame rate mode : Constant
Frame rate : 23.976 (24000/1001) FPS
Color space : YUV
Chroma subsampling : 4:2:0
Bit depth : 8 bits
Scan type : Progressive
Bits/(Pixel*Frame) : 0.272
Stream size : 3.95 GiB (75%)
Writing library : x264 core 152 r2851 ba24899
Encoding settings : cabac=1 / ref=5 / deblock=1:-3:-3 / analyse=0x3:0x113 / me=umh / subme=11 / psy=1 / psy_rd=1.00:0.15 / mixed_ref=1 / me_range=16 / chroma_me=1 / trellis=2 / 8x8dct=1 / cqm=0 / deadzone=21,11 / fast_pskip=0 / chroma_qp_offset=-3 / threads=17 / lookahead_threads=1 / sliced_threads=0 / nr=0 / decimate=1 / interlaced=0 / bluray_compat=0 / constrained_intra=0 / bframes=5 / b_pyramid=2 / b_adapt=2 / b_bias=0 / direct=3 / weightb=1 / open_gop=0 / weightp=2 / keyint=250 / keyint_min=23 / scenecut=40 / intra_refresh=0 / rc_lookahead=40 / rc=crf / mbtree=1 / crf=16.0 / qcomp=0.60 / qpmin=10 / qpmax=69 / qpstep=4 / ip_ratio=1.40 / aq=1:1.00
Language : English
Default : Yes
Forced : No

Audio
ID : 2
Format : DTS
Format/Info : Digital Theater Systems
Mode : 16
Format settings, Endianness : Big
Codec ID : A_DTS
Duration : 2 h 6 min
Bit rate mode : Constant
Bit rate : 1 509 kb/s
Channel(s) : 6 channels
Channel positions : Front: L C R, Side: L R, LFE
Sampling rate : 48.0 kHz
Frame rate : 93.750 FPS (512 spf)
Bit depth : 16 bits
Compression mode : Lossy
Stream size : 1.33 GiB (25%)
Language : German
Default : Yes
Forced : No

Text #1
ID : 3
Format : UTF-8
Codec ID : S_TEXT/UTF8
Codec ID/Info : UTF-8 Plain Text
Duration : 2 h 4 min
Bit rate : 0 b/s
Count of elements : 5
Stream size : 213 Bytes (0%)
Title : ger forced
Language : German
Default : Yes
Forced : Yes

Text #2
ID : 4
Format : VobSub
Muxing mode : zlib
Codec ID : S_VOBSUB
Codec ID/Info : Picture based subtitle format used on DVDs
Duration : 2 h 4 min
Bit rate : 17 b/s
Count of elements : 5
Stream size : 15.5 KiB (0%)
Title : ger forced
Language : German
Default : No
Forced : No

Text #3
ID : 5
Format : VobSub
Muxing mode : zlib
Codec ID : S_VOBSUB
Codec ID/Info : Picture based subtitle format used on DVDs
Duration : 2 h 4 min
Bit rate : 3 327 b/s
Count of elements : 1465
Stream size : 2.97 MiB (0%)
Title : ger regular sdh
Language : German
Default : No
Forced : No

Text #4
ID : 6
Format : UTF-8
Codec ID : S_TEXT/UTF8
Codec ID/Info : UTF-8 Plain Text
Duration : 2 h 4 min
Bit rate : 50 b/s
Count of elements : 1465
Stream size : 46.5 KiB (0%)
Title : ger regular sdh
Language : German
Default : No
Forced : No

Menu
00:00:00.000 : en:00:00:00.000
00:12:43.221 : en:00:12:43.221
00:21:05.347 : en:00:21:05.347
00:32:32.659 : en:00:32:32.659
00:43:09.378 : en:00:43:09.378
00:56:47.988 : en:00:56:47.988
01:06:48.546 : en:01:06:48.546
01:14:13.032 : en:01:14:13.032
01:23:44.394 : en:01:23:44.394
01:36:36.791 : en:01:36:36.791
01:46:57.244 : en:01:46:57.244
01:58:58.798 : en:01:58:58.798




Screenshots

King Arthur: Legend of the Sword (2017)

King Arthur: Legend of the Sword (2017)

King Arthur: Legend of the Sword (2017)