Kingdom Come (2011)

Posted By: Tutorial
Kingdom Come (2011)

Kingdom Come (2011)
WEBRip | 1920 x 1080 | .MKV/AVC @ 8246 Kbps | 1h 27mn | 5.28 GB
Audio: English AC-3 224 Kbps, 2 channels | Subs: English
Genre: Documentary, Drama

Chronicling first-time filmmaker Daniel Gillies' struggle to finance his independent feature film, Broken Kingdom, and featuring other filmmakers' stories of their own adventures in indie cinema.
Directors: Paiman Kalayeh, John Lyons Murphy
Writers: Paiman Kalayeh, John Lyons Murphy
Stars: Selma Blair, Edward Burns, Bruce Campbell

More info: IMDB

General
Unique ID : 181180369514471038726437639934700826207 (0x884E11E4DAFC0E1EA25BA78AB7B62E5F)
Complete name : Kingdom.Come.2011.mkv
Format : Matroska
Format version : Version 4 / Version 2
File size : 5.28 GiB
Duration : 1h 27mn
Overall bit rate mode : Variable
Overall bit rate : 8 642 Kbps
Encoded date : UTC 2017-02-06 22:25:22
Writing application : mkvmerge v9.6.0 ('Slave To Your Mind') 64bit
Writing library : libebml v1.3.4 + libmatroska v1.4.5

Video
ID : 1
Format : AVC
Format/Info : Advanced Video Codec
Format profile : High@L4.0
Format settings, CABAC : Yes
Format settings, ReFrames : 4 frames
Codec ID : V_MPEG4/ISO/AVC
Duration : 1h 27mn
Bit rate mode : Variable
Bit rate : 8 246 Kbps
Maximum bit rate : 15.0 Mbps
Width : 1 920 pixels
Height : 1 080 pixels
Display aspect ratio : 16:9
Frame rate : 23.976 fps
Color space : YUV
Chroma subsampling : 4:2:0
Bit depth : 8 bits
Scan type : Progressive
Bits/(Pixel*Frame) : 0.166
Stream size : 5.04 GiB (95%)
Writing library : x264 core 148 r2623 d5b2374
Encoding settings : cabac=1 / ref=4 / deblock=1:-1:-1 / analyse=0x3:0x133 / me=umh / subme=9 / psy=1 / psy_rd=1.00:0.15 / mixed_ref=1 / me_range=24 / chroma_me=1 / trellis=2 / 8x8dct=1 / cqm=0 / deadzone=21,11 / fast_pskip=1 / chroma_qp_offset=-3 / threads=34 / lookahead_threads=5 / sliced_threads=0 / nr=150 / decimate=1 / interlaced=0 / bluray_compat=0 / constrained_intra=0 / bframes=8 / b_pyramid=2 / b_adapt=2 / b_bias=0 / direct=3 / weightb=1 / open_gop=0 / weightp=2 / keyint=120 / keyint_min=61 / scenecut=0 / intra_refresh=0 / rc_lookahead=120 / rc=crf / mbtree=1 / crf=18.0 / qcomp=0.60 / qpmin=0 / qpmax=69 / qpstep=4 / vbv_maxrate=15000 / vbv_bufsize=31250 / crf_max=0.0 / nal_hrd=vbr / filler=0 / ip_ratio=1.40 / aq=3:1.00
Default : Yes
Forced : No
Color primaries : BT.709-5, BT.1361, IEC 61966-2-4, SMPTE RP177
Transfer characteristics : BT.709-5, BT.1361
Matrix coefficients : BT.709-5, BT.1361, IEC 61966-2-4 709, SMPTE RP177

Audio
ID : 2
Format : E-AC-3
Format/Info : Audio Coding 3
Codec ID : A_EAC3
Duration : 1h 27mn
Bit rate mode : Constant
Bit rate : 224 Kbps
Channel(s) : 2 channels
Channel positions : Front: L R
Sampling rate : 48.0 KHz
Compression mode : Lossy
Stream size : 140 MiB (3%)
Language : English
Default : Yes
Forced : No

Text
ID : 3
Format : UTF-8
Codec ID : S_TEXT/UTF8
Codec ID/Info : UTF-8 Plain Text
Language : English
Default : No
Forced : No
Screenshots

Kingdom Come (2011)

Kingdom Come (2011)

Kingdom Come (2011)

Welcome to my blog - daily update!

Kingdom Come (2011)