La ragazza nella nebbia (2017)

Posted By: Tavaz
720p (HD) / TS MD IMDb
La ragazza nella nebbia (2017)

La ragazza nella nebbia (2017)
MKV | 624x288 | Italian | MP4V-ES @ 2353 kbps | MPEG Audio @ 96 kbps | 2 h 5 min | 2.19 GiB
Genre: Crime, Thriller

La ragazza nella nebbia, thriller firmato Donato Carrisi, vanta un cast stellare capitanato da Toni Servillo, al fianco di Jean Reno e Alessio Boni.
Un banco di nebbia fitta avvolge il paese di Avechot, nella piccola valle incuneata tra le Alpi. La nebbia che ha inghiottito le case e le strade si abbatte anche sull'auto dell'agente Vogel: la vettura finisce in un fosso e l'uomo, pur essendo uscito incolume dall'incidente, ha i vestiti ricoperti di sangue. Smarrito, senza ricordi delle ultime ore, Vogel viene seguito da uno psichiatra insieme al quale ripercorre gli ultimi turbolenti mesi della sua vita…

La.Ragazza.Nella.Nebbia.2017.iTALiAN.MD.720p.HDTS.x264-iSTANCE.mkv (2.2 GB)



General
Complete name : ./La.Ragazza.Nella.Nebbia.2017.iTALiAN.MD.720p.HDTS.x264-iSTANCE.mkv
Format : Matroska
Format version : Version 1
File size : 2.19 GiB
Duration : 2 h 5 min
Overall bit rate : 2 499 kb/s
Writing application : HandBrake 0.9.1
Writing library : libmkv 0.6.1.2

Video
ID : 1
Format : MPEG-4 Visual
Format profile : Simple@L3
Format settings, BVOP : No
Format settings, QPel : No
Format settings, GMC : No warppoints
Format settings, Matrix : Default (H.263)
Codec ID : V_MPEG4/ISO/ASP
Codec ID/Info : Advanced Simple Profile
Duration : 2 h 5 min
Bit rate : 2 354 kb/s
Width : 624 pixels
Height : 288 pixels
Display aspect ratio : 2.2:1
Frame rate mode : Constant
Frame rate : 25.000 FPS
Color space : YUV
Chroma subsampling : 4:2:0
Bit depth : 8 bits
Scan type : Progressive
Compression mode : Lossy
Bits/(Pixel*Frame) : 0.524
Stream size : 2.06 GiB (94%)
Writing library : XviD 1.1.2 (UTC 2006-11-01)
Language : English
Default : Yes
Forced : No

Audio
ID : 2
Format : MPEG Audio
Format version : Version 1
Format profile : Layer 3
Format settings : Joint stereo / MS Stereo
Mode : Joint stereo
Mode extension : MS Stereo
Codec ID : A_MPEG/L3
Codec ID/Hint : MP3
Duration : 2 h 5 min
Bit rate mode : Constant
Bit rate : 96.0 kb/s
Channel(s) : 2 channels
Sampling rate : 48.0 kHz
Compression mode : Lossy
Delay relative to video : 3 ms
Stream size : 86.0 MiB (4%)
Default : Yes
Forced : No





La ragazza nella nebbia (2017)


La ragazza nella nebbia (2017)


La ragazza nella nebbia (2017)


La ragazza nella nebbia (2017)


La ragazza nella nebbia (2017)