Tags
Language
Tags

La chute de l'empire américain / The Fall of the American Empire (2018)

Posted By: JohnSmith
1080p (FullHD) / WEB-DL IMDb
La chute de l'empire américain / The Fall of the American Empire (2018)

La chute de l'empire américain / The Fall of the American Empire (2018)
WEB-DL 1080p | MKV / AVC@4625 kb/s | 1912x800 | 2h 7mn | Français (VFQ): AC3, 384 kb/s (6 ch) | 4.45 GB
Genre: Comedy | Crime

À 36 ans, malgré un doctorat en philosophie, Pierre-Paul Daoust est chauffeur pour une compagnie de livraison. Un jour, il est témoin d'un hold-up qui tourne mal, faisant deux morts parmi les gangsters. Il se retrouve seul avec deux énormes sacs de sport bourrés de billets. Des millions de dollars. Le pouvoir irrésistible de l’argent va bousculer ses valeurs altruistes et mettre sur sa route une escort girl envoûtante, un ex-taulard perspicace et un avocat d’affaires roublard. Après Le déclin de l’Empire Américain et les Invasions Barbares, La Chute de l’Empire Américain clôt ainsi la trilogie du réalisateur Denys Arcand.


General
Unique ID : 216222606777310946144075555076489217175 (0xA2AAF594FC4C806A973F107C889E0497)
Complete name : C:\La.Chute.de.l.Empire.Americain.2019.FRENCH.1080p.WEB.mkv
Format : Matroska
Format version : Version 4
File size : 4.45 GiB
Duration : 2 h 7 min
Overall bit rate : 5 011 kb/s
Encoded date : UTC 2019-08-29 00:51:59
Writing application : mkvmerge v9.4.2 ('So High') 64bit
Writing library : libebml v1.3.4 + libmatroska v1.4.5

Video
ID : 1
Format : AVC
Format/Info : Advanced Video Codec
Format profile : High@L4
Format settings : CABAC / 5 Ref Frames
Format settings, CABAC : Yes
Format settings, Reference : 5 frames
Codec ID : V_MPEG4/ISO/AVC
Duration : 2 h 7 min
Bit rate : 4 625 kb/s
Width : 1 912 pixels
Height : 800 pixels
Display aspect ratio : 2.40:1
Frame rate mode : Constant
Frame rate : 24.000 FPS
Color space : YUV
Chroma subsampling : 4:2:0
Bit depth : 8 bits
Scan type : Progressive
Bits/(Pixel*Frame) : 0.126
Stream size : 4.11 GiB (92%)
Language : French
Default : Yes
Forced : No
Color range : Limited
Color primaries : BT.709
Transfer characteristics : BT.709
Matrix coefficients : BT.709

Audio
ID : 2
Format : AC-3
Format/Info : Audio Coding 3
Commercial name : Dolby Digital
Codec ID : A_AC3
Duration : 2 h 7 min
Bit rate mode : Constant
Bit rate : 384 kb/s
Channel(s) : 6 channels
Channel layout : L R C LFE Ls Rs
Sampling rate : 48.0 kHz
Frame rate : 31.250 FPS (1536 SPF)
Bit depth : 16 bits
Compression mode : Lossy
Stream size : 349 MiB (8%)
Title : DD5.1 - VFQ
Language : French
Service kind : Complete Main
Default : Yes
Forced : No

Menu
00:00:00.000 : en:1
00:12:00.000 : en:2
00:24:00.000 : en:3
00:36:00.000 : en:4
00:48:00.000 : en:5
01:00:00.000 : en:6
01:12:00.000 : en:7
01:24:00.000 : en:8
01:36:00.000 : en:9
01:48:00.000 : en:10




Screenshots

La chute de l'empire américain / The Fall of the American Empire (2018)

La chute de l'empire américain / The Fall of the American Empire (2018)

La chute de l'empire américain / The Fall of the American Empire (2018)