Tags
Language
Tags

BBC - La Traviata: Love, Death and Divas (2015)

Posted By: Tutorial
720p (HD) / HDTV
BBC - La Traviata: Love, Death and Divas (2015)

BBC - La Traviata: Love, Death and Divas (2015)
HDTV | 1280 x 720 | .MKV/AVC @ 2041 Kbps | 59 min 23 s | 922 MB
Audio: English AAC 128 Kbps, 2 channels | Subs: English
Genre: Documentary

La traviata is one of the world's most popular operas. Its arias are instantly recognisable and have become staples for opera houses across the globe. Yet at its London premiere in 1856, La traviata was denounced for bringing 'the poetry of the brothel' to the stage and unleashing uncomfortable truths on Victorian society.

Amanda Vickery and Tom Service reveal the extraordinary story behind the opera's first night in London and its scandalous heroine, the courtesan Violetta Valéry, whose dramatic life and tragic death were based on real-life characters and events. Tom and Amanda's journey goes from the luxury of the Parisian demi-monde to the teeming streets of Victorian London, where prostitution was seen as a threat to society itself. Amanda explores the story of Marie Duplessis, a highly-prized courtesan whose life inspired the play on which the opera was based, whilst Tom discovers how Verdi, on a visit to Paris with his mistress soprano Giuseppina Strepponi, seized this risqué story for the subject of his new masterpiece. Together, Amanda and Tom follow the opera's journey to London and examine how its incendiary premiere marked a historic moment in which art confronted reality, redefining the role of the opera diva forever.

Scenes from Verdi's masterpiece have been specially recreated for the film alongside location photography in Venice, Milan, Paris and London.

General
Unique ID : 184244839407402957217996553673783909696 (0x8A9C43ECC16DCA66835474FED7641D40)
Complete name : BBC.La.Traviata.Love.Death.and.Divas.mkv
Format : Matroska
Format version : Version 4 / Version 2
File size : 922 MiB
Duration : 59 min 23 s
Overall bit rate : 2 172 kb/s
Encoded date : UTC 2016-03-21 18:29:51
Writing application : mkvmerge v8.3.0 ('Over the Horizon') 32bit
Writing library : libebml v1.3.1 + libmatroska v1.4.2

Video
ID : 1
Format : AVC
Format/Info : Advanced Video Codec
Format profile : High@L4.1
Format settings, CABAC : Yes
Format settings, ReFrames : 6 frames
Codec ID : V_MPEG4/ISO/AVC
Duration : 59 min 23 s
Bit rate : 2 041 kb/s
Width : 1 280 pixels
Height : 720 pixels
Display aspect ratio : 16:9
Frame rate mode : Constant
Frame rate : 25.000 FPS
Color space : YUV
Chroma subsampling : 4:2:0
Bit depth : 8 bits
Scan type : Progressive
Bits/(Pixel*Frame) : 0.089
Stream size : 867 MiB (94%)
Writing library : x264 core 148 r2665 a01e339
Encoding settings : cabac=1 / ref=6 / deblock=1:0:0 / analyse=0x3:0x113 / me=umh / subme=9 / psy=1 / psy_rd=1.00:0.00 / mixed_ref=1 / me_range=24 / chroma_me=1 / trellis=1 / 8x8dct=1 / cqm=0 / deadzone=21,11 / fast_pskip=0 / chroma_qp_offset=-2 / threads=3 / lookahead_threads=1 / sliced_threads=0 / nr=0 / decimate=1 / interlaced=0 / bluray_compat=0 / constrained_intra=0 / bframes=5 / b_pyramid=2 / b_adapt=2 / b_bias=0 / direct=1 / weightb=1 / open_gop=0 / weightp=2 / keyint=250 / keyint_min=25 / scenecut=40 / intra_refresh=0 / rc_lookahead=40 / rc=crf / mbtree=1 / crf=19.0 / qcomp=0.60 / qpmin=0 / qpmax=69 / qpstep=4 / ip_ratio=1.40 / aq=1:1.00
Language : English
Default : Yes
Forced : No

Audio
ID : 2
Format : AAC
Format/Info : Advanced Audio Codec
Format profile : LC
Codec ID : A_AAC
Duration : 59 min 23 s
Bit rate : 128 kb/s
Channel(s) : 2 channels
Channel positions : Front: L R
Sampling rate : 48.0 kHz
Frame rate : 46.875 FPS (1024 spf)
Compression mode : Lossy
Delay relative to video : 9 ms
Stream size : 54.5 MiB (6%)
Language : English
Default : Yes
Forced : No

Text
ID : 3
Format : UTF-8
Codec ID : S_TEXT/UTF8
Codec ID/Info : UTF-8 Plain Text
Duration : 58 min 40 s
Bit rate : 68 b/s
Count of elements : 680
Stream size : 29.5 KiB (0%)
Language : English
Default : No
Forced : No
Screenshots

BBC - La Traviata: Love, Death and Divas (2015)

BBC - La Traviata: Love, Death and Divas (2015)

Welcome to my blog - daily update!

BBC - La Traviata: Love, Death and Divas (2015)