Tags
Language
Tags

La tierra y la sombra / Land and Shade (2015)

Posted By: Without
720p (HD) / WEB-DL IMDb
La tierra y la sombra / Land and Shade (2015)

La tierra y la sombra / Land and Shade (2015)
WEB-DL 720p | MKV | 1 h 37 min | 2.92 GB | 1280x718 | AVC@3893 kb/s | Español AC3@384 kb/s, 6 ch
Subs: English, Português
Genre: Drama

After having left a long time ago, a humble country sugar cane worker returns home to meet his grandson and deal with the hardships his family has been put into.

IMDB - 13 wins & 13 nominations.


General
La.Tierra.y.la.Sombra.2015.720p.WEB-DL.h.264.AC3.mkv
Format : Matroska
Format version : Version 4 / Version 2
File size : 2.92 GB
Duration : 1 h 37 min
Overall bit rate : 4279 kb/s
Encoded date : UTC 2020-07-15 02:39:26
Writing application : mkvmerge v48.0.0 ('Fortress Around Your Heart') 64-bit
Writing library : libebml v1.4.0 + libmatroska v1.6.0
Cover : Yes
Attachments : cover.jpg

Video
ID : 1
Format : AVC
Format/Info : Advanced Video Codec
Format profile : High@L3.1
Format settings, CABAC : No
Format settings, ReFrames : 2 frames
Codec ID : V_MPEG4/ISO/AVC
Duration : 1 h 37 min
Bit rate : 3893 kb/s
Width : 1280 pixels
Height : 718 pixels
Display aspect ratio : 16:9
Frame rate mode : Constant
Frame rate : 24.000 FPS
Color space : YUV
Chroma subsampling : 4:2:0
Bit depth : 8 bits
Scan type : Progressive
Bits/(Pixel*Frame) : 0.176
Stream size : 2.65 GB (91%)
Language : English
Default : Yes
Forced : No
Color range : Limited
Color primaries : BT.709
Transfer characteristics : BT.709
Matrix coefficients : BT.709

Audio
ID : 2
Format : AC-3
Format/Info : Audio Coding 3
Mode extension : CM (complete main)
Format settings, Endianness : Big
Codec ID : A_AC3
Duration : 1 h 37 min
Bit rate mode : Constant
Bit rate : 384 kb/s
Channel(s) : 6 channels
Channel positions : Front: L C R, Side: L R, LFE
Sampling rate : 48.0 kHz
Frame rate : 31.250 FPS (1536 spf)
Bit depth : 16 bits
Compression mode : Lossy
Delay relative to video : -42 ms
Stream size : 268 MB (9%)
Language : Spanish
Default : Yes
Forced : No

Text #1
ID : 3
Format : UTF-8
Codec ID : S_TEXT/UTF8
Codec ID/Info : UTF-8 Plain Text
Duration : 1 h 24 min
Bit rate : 20 b/s
Count of elements : 469
Stream size : 12.6 KiB (0%)
Language : English
Default : Yes
Forced : No

Text #2
ID : 4
Format : UTF-8
Codec ID : S_TEXT/UTF8
Codec ID/Info : UTF-8 Plain Text
Duration : 1 h 31 min
Bit rate : 19 b/s
Count of elements : 463
Stream size : 12.9 KiB (0%)
Language : Portuguese
Default : No
Forced : No

Menu
00:00:00.000 : en:Capítulo 1
00:12:07.625 : en:Capítulo 2
00:22:53.541 : en:Capítulo 3
00:32:17.082 : en:Capítulo 4
00:43:53.123 : en:Capítulo 5
00:54:24.539 : en:Capítulo 6
01:04:07.372 : en:Capítulo 7
01:14:24.163 : en:Capítulo 8
01:24:58.329 : en:Capítulo 9



WEB-DL 720p Screenshots

La tierra y la sombra / Land and Shade (2015)

La tierra y la sombra / Land and Shade (2015)

La tierra y la sombra / Land and Shade (2015)

La tierra y la sombra / Land and Shade (2015)

La tierra y la sombra / Land and Shade (2015)

La tierra y la sombra / Land and Shade (2015)


Come Visit My Blog (•‿•)