Lady Macbeth (2017)

Posted By: Tavaz
SD / BDRip IMDb
Lady Macbeth (2017)

Lady Macbeth (2017)
BDRip | MKV | 720x302 | German | H264 @ 399 kbps | AC-3 @ 384 kbps | 1 h 28 min | 499 MiB
Genre: Drama

England, 1865: Catherine (Florence Pugh) lebt gemeinsam mit ihrem Gatten Alexander (Paul Hilton) und seinem Vater Boris (Christopher Fairbank) auf dem Land. Liebe ist in dieser Beziehung nicht im Spiel und obwohl Boris beständig darauf pocht, Catherine solle ihre ehelichen Pflichten erfüllen, hat Alexander keinerlei Interesse am Körper seiner Frau. Als ihr Mann eines Tages verreist, nutzt Catherine die Möglichkeit, dem ihr auferlegten Hausarrest zu entkommen und erkundet die Gegend. So lernt sie einen der Landarbeiter, Sebastian (Cosmo Jarvis), kennen. Nach anfänglicher Unsicherheit und trotz einer priesterlichen Warnung gibt sich Catherine schließlich ihrer Leidenschaft hin und beginnt eine Affäre mit Sebastian. Doch Alexanders Rückkehr gefährdet das neu gefundene Glück und Catherine muss eine Entscheidung treffen…

lady.macbeth.german.2016.ac3.bdrip.x264-universum.mkv (498.5 MB)
lady.macbeth.german.2016.ac3.bdrip.x264-universum.idx (22.0 KB)
lady.macbeth.german.2016.ac3.bdrip.x264-universum.sub (1.0 MB)
rushchk.log (250 bytes)
lady.macbeth.german.2016.ac3.bdrip.x264-universum(1).sub (1.0 MB)
lady.macbeth.german.2016.ac3.bdrip.x264-universum(1).idx (22.0 KB)
rushchk(1).log (250 bytes)



General
Unique ID : 195376115015046256313758683298297963377 (0x92FC122F3078C007BD73A0563B566371)
Complete name : ./Lady.Macbeth.GERMAN.2016.AC3.BDRip.x264-UNiVERSUM/lady.macbeth.german.2016.ac3.bdrip.x264-universum.mkv
Format : Matroska
Format version : Version 4 / Version 2
File size : 499 MiB
Duration : 1 h 28 min
Overall bit rate : 785 kb/s
Encoded date : UTC 2018-04-19 12:56:42
Writing application : mkvmerge v7.9.0 ('Birds') 64bit
Writing library : libebml v1.3.1 + libmatroska v1.4.2

Video
ID : 1
Format : AVC
Format/Info : Advanced Video Codec
Format profile : High@L3.1
Format settings : CABAC / 5 Ref Frames
Format settings, CABAC : Yes
Format settings, RefFrames : 5 frames
Codec ID : V_MPEG4/ISO/AVC
Duration : 1 h 28 min
Bit rate : 399 kb/s
Width : 720 pixels
Height : 302 pixels
Display aspect ratio : 2.40:1
Frame rate mode : Constant
Frame rate : 24.000 FPS
Color space : YUV
Chroma subsampling : 4:2:0
Bit depth : 8 bits
Scan type : Progressive
Bits/(Pixel*Frame) : 0.076
Stream size : 254 MiB (51%)
Writing library : x264 core 155 r2901 7d0ff22
Encoding settings : cabac=1 / ref=5 / deblock=1:-1:-1 / analyse=0x3:0x113 / me=umh / subme=7 / psy=1 / psy_rd=1.00:0.15 / mixed_ref=1 / me_range=16 / chroma_me=1 / trellis=1 / 8x8dct=1 / cqm=0 / deadzone=21,11 / fast_pskip=0 / chroma_qp_offset=-3 / threads=9 / lookahead_threads=1 / sliced_threads=0 / nr=0 / decimate=1 / interlaced=0 / bluray_compat=0 / constrained_intra=0 / bframes=3 / b_pyramid=2 / b_adapt=1 / b_bias=0 / direct=1 / weightb=1 / open_gop=0 / weightp=2 / keyint=250 / keyint_min=24 / scenecut=40 / intra_refresh=0 / rc_lookahead=40 / rc=crf / mbtree=1 / crf=19.0 / qcomp=0.60 / qpmin=0 / qpmax=69 / qpstep=4 / ip_ratio=1.40 / aq=1:1.00
Language : German
Default : Yes
Forced : No

Audio
ID : 2
Format : AC-3
Format/Info : Audio Coding 3
Format settings, Endianness : Big
Codec ID : A_AC3
Duration : 1 h 28 min
Bit rate mode : Constant
Bit rate : 384 kb/s
Channel(s) : 6 channels
Channel positions : Front: L C R, Side: L R, LFE
Sampling rate : 48.0 kHz
Frame rate : 31.250 FPS (1536 SPF)
Bit depth : 16 bits
Compression mode : Lossy
Stream size : 244 MiB (49%)
Title : AC3
Language : German
Service kind : Complete Main
Default : Yes
Forced : No

Menu
00:00:00.000 : de:00:00:00.000
00:07:09.500 : de:00:07:09.500
00:13:28.625 : de:00:13:28.625
00:21:03.708 : de:00:21:03.708
00:28:39.333 : de:00:28:39.333
00:36:07.083 : de:00:36:07.083
00:43:46.417 : de:00:43:46.417
00:51:55.250 : de:00:51:55.250
00:58:02.958 : de:00:58:02.958
01:05:05.292 : de:01:05:05.292
01:12:56.000 : de:01:12:56.000
01:21:49.917 : de:01:21:49.917





Lady Macbeth (2017)


Lady Macbeth (2017)


Lady Macbeth (2017)


Lady Macbeth (2017)


Lady Macbeth (2017)