Tags
Language
Tags
June 2024
Su Mo Tu We Th Fr Sa
26 27 28 29 30 31 1
2 3 4 5 6 7 8
9 10 11 12 13 14 15
16 17 18 19 20 21 22
23 24 25 26 27 28 29
30 1 2 3 4 5 6

Le siège de La Mecque (2018)

Posted By: Tavaz
720p (HD) / WEBRip
Le siège de La Mecque (2018)

Le siège de La Mecque (2018)
WEBRip | MKV | 1280x720 | English | H264 @ 2219 kbps | AAC @ 125 kbps | 51 min 50 s | 870 MiB
Genre: Documentaries

Le 20 novembre 1979, la Grande Mosquée de La Mecque est prise d'assaut par des fondamentalistes islamistes lourdement armés. De nombreux pèlerins sont tués. Les insurgés exigent l'abdication de la famille royale et la création d'un véritable État islamique. L'armée saoudienne intervient, mais ne parvient pas à déloger les insurgés et essuie de lourdes pertes. Finalement, grâce à l'aide tactique du GIGN français, les soldats saoudiens parviennent à reprendre le lieu sacré. Ce siège de quinze jours a ébranlé l'équilibre géopolitique du Moyen Orient.


lsdlm-laozi.mkv (870.3 MB)
lsdlm-lz.mkv (16.4 MB)



General
Unique ID : 338094242995083587753187928749767740351 (0xFE5A9529440D6D9E80D5B95A06014BBF)
Complete name : ./lsdlm-laozi.mkv
Format : Matroska
Format version : Version 4 / Version 2
File size : 870 MiB
Duration : 51 min 50 s
Overall bit rate : 2 347 kb/s
Encoded date : UTC 2018-08-30 13:49:19
Writing application : mkvmerge v24.0.0 ('Beyond The Pale') 64-bit
Writing library : libebml v1.3.6 + libmatroska v1.4.9

Video
ID : 1
Format : AVC
Format/Info : Advanced Video Codec
Format profile : Main@L3.1
Format settings : CABAC / 3 Ref Frames
Format settings, CABAC : Yes
Format settings, RefFrames : 3 frames
Codec ID : V_MPEG4/ISO/AVC
Duration : 51 min 50 s
Bit rate : 2 219 kb/s
Width : 1 280 pixels
Height : 720 pixels
Display aspect ratio : 16:9
Frame rate mode : Constant
Frame rate : 25.000 FPS
Standard : PAL
Color space : YUV
Chroma subsampling : 4:2:0
Bit depth : 8 bits
Scan type : Progressive
Bits/(Pixel*Frame) : 0.096
Stream size : 823 MiB (95%)
Default : Yes
Forced : No
Color range : Limited

Audio
ID : 2
Format : AAC
Format/Info : Advanced Audio Codec
Format profile : LC
Codec ID : A_AAC-2
Duration : 51 min 49 s
Bit rate : 125 kb/s
Channel(s) : 2 channels
Channel positions : Front: L R
Sampling rate : 48.0 kHz
Frame rate : 46.875 FPS (1024 SPF)
Compression mode : Lossy
Delay relative to video : -80 ms
Stream size : 46.5 MiB (5%)
Default : Yes
Forced : No





Le siège de La Mecque (2018)


Le siège de La Mecque (2018)


Le siège de La Mecque (2018)


Le siège de La Mecque (2018)


Le siège de La Mecque (2018)