Tags
Language
Tags

Le ragazze del centralino S01 (2017)

Posted By: JohnSmith
Le ragazze del centralino S01 (2017)

Le ragazze del centralino / Las chicas del cable S01 (2017)
WEBRip 720p | MKV / AVC@~6500 kb/s | 1280x640 | 8x~55mn | 8x~2.5 GB
Italian (dubbed) / Spanish: AC3, 384 kb/s (6 ch) | Subtitles: Italian (forced, full), English
Genre: Drama

Ideata da Ramón Campos e Gema Neira, Le ragazze del centralino (titolo originale Las chicas del cable) è la prima serie tv originale spagnola targata Netflix e sfrutta un periodo storico chiave per la Spagna (il 1928) per raccontare amori, tradimenti e segreti, servendosi di un cast di attori affiatato e consolidato, quali Yon González, Martiño Rivas e Blanca Suárez, già protagonisti della serie di culto El internado (2007-2010).




General
Unique ID : 184746400684320681912254160888524061726 (0x8AFCDCCE151F790EA5A941C9F0263C1E)
Complete name : A:\Le.Ragazze.Del.Centralino.720p.S01E01.ITA.SPA.WEBMux.mkv
Format : Matroska
Format version : Version 4 / Version 2
File size : 2.69 GiB
Duration : 54 min 4 s
Overall bit rate : 7 119 kb/s
Encoded date : UTC 2017-08-06 14:04:00
Writing application : mkvmerge v8.3.0 ('Over the Horizon') 64bit
Writing library : libebml v1.3.1 + libmatroska v1.4.2

Video
ID : 1
Format : AVC
Format/Info : Advanced Video Codec
Format profile : High@L4.1
Format settings, CABAC : Yes
Format settings, ReFrames : 4 frames
Codec ID : V_MPEG4/ISO/AVC
Duration : 53 min 42 s
Bit rate : 6 400 kb/s
Width : 1 280 pixels
Height : 640 pixels
Display aspect ratio : 2.000
Frame rate mode : Constant
Frame rate : 25.000 FPS
Color space : YUV
Chroma subsampling : 4:2:0
Bit depth : 8 bits
Scan type : Progressive
Bits/(Pixel*Frame) : 0.313
Stream size : 2.40 GiB (89%)
Writing library : x264 core 148 r2692 64f4e24
Encoding settings : cabac=1 / ref=4 / deblock=1:-2:-1 / analyse=0x3:0x133 / me=umh / subme=9 / psy=1 / psy_rd=1.00:0.15 / mixed_ref=1 / me_range=32 / chroma_me=1 / trellis=2 / 8x8dct=1 / cqm=0 / deadzone=21,11 / fast_pskip=0 / chroma_qp_offset=-3 / threads=12 / lookahead_threads=1 / sliced_threads=0 / nr=0 / decimate=0 / interlaced=0 / bluray_compat=0 / constrained_intra=0 / bframes=5 / b_pyramid=0 / b_adapt=1 / b_bias=0 / direct=3 / weightb=1 / open_gop=0 / weightp=2 / keyint=240 / keyint_min=40 / scenecut=40 / intra_refresh=0 / rc_lookahead=60 / rc=2pass / mbtree=1 / bitrate=6400 / ratetol=1.9 / qcomp=0.60 / qpmin=1 / qpmax=69 / qpstep=4 / cplxblur=20.0 / qblur=0.5 / vbv_maxrate=62500 / vbv_bufsize=78125 / nal_hrd=none / filler=0 / ip_ratio=1.40 / aq=1:1.00
Language : English
Default : Yes
Forced : No

Audio #1
ID : 2
Format : AC-3
Format/Info : Audio Coding 3
Format settings, Endianness : Big
Codec ID : A_AC3
Duration : 52 min 53 s
Bit rate mode : Constant
Bit rate : 384 kb/s
Channel(s) : 6 channels
Channel positions : Front: L C R, Side: L R, LFE
Sampling rate : 48.0 kHz
Frame rate : 31.250 FPS (1536 spf)
Bit depth : 16 bits
Compression mode : Lossy
Delay relative to video : 21 ms
Stream size : 145 MiB (5%)
Language : Italian
Service kind : Complete Main
Default : Yes
Forced : No

Audio #2
ID : 3
Format : AC-3
Format/Info : Audio Coding 3
Format settings, Endianness : Big
Codec ID : A_AC3
Duration : 54 min 4 s
Bit rate mode : Constant
Bit rate : 384 kb/s
Channel(s) : 6 channels
Channel positions : Front: L C R, Side: L R, LFE
Sampling rate : 48.0 kHz
Frame rate : 31.250 FPS (1536 spf)
Bit depth : 16 bits
Compression mode : Lossy
Stream size : 149 MiB (5%)
Language : Spanish
Service kind : Complete Main
Default : No
Forced : No

Text #1
ID : 4
Format : UTF-8
Codec ID : S_TEXT/UTF8
Codec ID/Info : UTF-8 Plain Text
Duration : 48 min 58 s
Bit rate : 0 b/s
Count of elements : 13
Stream size : 291 Bytes (0%)
Title : FORCED
Language : Italian
Default : Yes
Forced : Yes

Text #2
ID : 5
Format : UTF-8
Codec ID : S_TEXT/UTF8
Codec ID/Info : UTF-8 Plain Text
Duration : 53 min 24 s
Bit rate : 78 b/s
Count of elements : 706
Stream size : 30.6 KiB (0%)
Title : Italian
Language : Italian
Default : No
Forced : No

Text #3
ID : 6
Format : UTF-8
Codec ID : S_TEXT/UTF8
Codec ID/Info : UTF-8 Plain Text
Duration : 52 min 20 s
Bit rate : 80 b/s
Count of elements : 697
Stream size : 30.8 KiB (0%)
Title : English
Language : English
Default : No
Forced : No

Text #4
ID : 7
Format : UTF-8
Codec ID : S_TEXT/UTF8
Codec ID/Info : UTF-8 Plain Text
Duration : 53 min 24 s
Bit rate : 93 b/s
Count of elements : 811
Stream size : 36.7 KiB (0%)
Title : English [CC]
Language : English
Default : No
Forced : No




Screenshots

Le ragazze del centralino S01 (2017)

Le ragazze del centralino S01 (2017)

Le ragazze del centralino S01 (2017)