Tags
Language
Tags

Legend of the Demon Cat / Kûkai (2017)

Posted By:
1080p (FullHD) / BDRip IMDb
Legend of the Demon Cat / Kûkai (2017)

Legend of the Demon Cat / Kûkai (2017)
BDRip | MKV | 720x302 | AVC@975 kb/s | Chinese AAC@144 kb/s
Subs: English | 2 channels | 2 h 9 min | 1.01 GB
BDRip 720p | MKV | 1280x536 | AVC@4207 kb/s | Chinese AC3@640 kb/s
Subs: English | 6 channels | 2 h 9 min | 4.37 GB
BDRip 1080p | MKV | 1920x808 | AVC@8171 kb/s | Chinese AC3@640 kb/s
Subs: English | 6 channels | 2 h 9 min | 7.95 GB
Genre: Drama, Fantasy, Mystery

Taking place in the Tang Dynasty, a demon cat appears and breaks the peace of Chang'an City, causing a series of strange events. Poet Bai Letian and Monk Kukai join hands to investigate the death of Concubine Yang by following the trial left by the cat, unveiling a buried fact.

IMDB - 4 wins & 2 nominations.


General
legend.of.the.demon.cat.2017.bdrip.x264-regret.mkv
Format : Matroska
Format version : Version 4 / Version 2
File size : 1.01 GiB
Duration : 2 h 9 min
Overall bit rate : 1 124 kb/s
Encoded date : UTC 2018-06-02 18:07:16
Writing application : mkvmerge v8.3.0 ('Over the Horizon') 64bit
Writing library : libebml v1.3.1 + libmatroska v1.4.2

Video
ID : 1
Format : AVC
Format/Info : Advanced Video Codec
Format profile : High@L3.1
Format settings, CABAC : Yes
Format settings, ReFrames : 5 frames
Codec ID : V_MPEG4/ISO/AVC
Duration : 2 h 9 min
Bit rate : 975 kb/s
Width : 720 pixels
Height : 302 pixels
Display aspect ratio : 2.40:1
Frame rate mode : Constant
Frame rate : 24.000 FPS
Color space : YUV
Chroma subsampling : 4:2:0
Bit depth : 8 bits
Scan type : Progressive
Bits/(Pixel*Frame) : 0.187
Stream size : 900 MiB (87%)
Writing library : x264 core 155 r2901 7d0ff22
Encoding settings : cabac=1 / ref=5 / deblock=1:-3:-3 / analyse=0x3:0x113 / me=umh / subme=8 / psy=1 / psy_rd=1.00:0.15 / mixed_ref=1 / me_range=16 / chroma_me=1 / trellis=2 / 8x8dct=1 / cqm=0 / deadzone=21,11 / fast_pskip=1 / chroma_qp_offset=-3 / threads=9 / lookahead_threads=1 / sliced_threads=0 / nr=0 / decimate=1 / interlaced=0 / bluray_compat=0 / constrained_intra=0 / bframes=3 / b_pyramid=2 / b_adapt=1 / b_bias=0 / direct=3 / weightb=1 / open_gop=0 / weightp=2 / keyint=240 / keyint_min=24 / scenecut=40 / intra_refresh=0 / rc_lookahead=50 / rc=crf / mbtree=1 / crf=19.0 / qcomp=0.60 / qpmin=0 / qpmax=69 / qpstep=4 / ip_ratio=1.40 / aq=1:1.00
Language : English
Default : Yes
Forced : No
Color range : Limited
Matrix coefficients : BT.709

Audio
ID : 2
Format : AAC
Format/Info : Advanced Audio Codec
Format profile : LC
Codec ID : A_AAC
Duration : 2 h 9 min
Bit rate : 144 kb/s
Channel(s) : 2 channels
Channel positions : Front: L R
Sampling rate : 48.0 kHz
Frame rate : 46.875 FPS (1024 spf)
Compression mode : Lossy
Delay relative to video : 9 ms
Stream size : 136 MiB (13%)
Language : Chinese
Default : Yes
Forced : No

Text
ID : 3
Format : UTF-8
Codec ID : S_TEXT/UTF8
Codec ID/Info : UTF-8 Plain Text
Duration : 2 h 3 min
Bit rate : 31 b/s
Count of elements : 1255
Stream size : 28.2 KiB (0%)
Title : English
Language : English
Default : Yes
Forced : Yes

Menu
00:00:00.000 : en:00:00:00.000
00:09:09.750 : en:00:09:09.750
00:19:17.125 : en:00:19:17.125
00:27:04.417 : en:00:27:04.417
00:31:07.708 : en:00:31:07.708
00:36:53.167 : en:00:36:53.167
00:42:00.292 : en:00:42:00.292
00:49:10.208 : en:00:49:10.208
00:54:01.917 : en:00:54:01.917
00:59:11.875 : en:00:59:11.875
01:03:47.292 : en:01:03:47.292
01:08:10.500 : en:01:08:10.500
01:12:29.792 : en:01:12:29.792
01:19:49.667 : en:01:19:49.667
01:25:21.958 : en:01:25:21.958
01:31:30.833 : en:01:31:30.833
01:39:10.667 : en:01:39:10.667
01:45:36.083 : en:01:45:36.083
01:53:28.625 : en:01:53:28.625
02:05:46.000 : en:02:05:46.000

General
legend.of.the.demon.cat.2017.720p.bluray.x264-regret.mkv
Format : Matroska
Format version : Version 4 / Version 2
File size : 4.37 GiB
Duration : 2 h 9 min
Overall bit rate : 4 849 kb/s
Encoded date : UTC 2018-06-02 17:30:39
Writing application : mkvmerge v8.3.0 ('Over the Horizon') 64bit
Writing library : libebml v1.3.1 + libmatroska v1.4.2

Video
ID : 1
Format : AVC
Format/Info : Advanced Video Codec
Format profile : High@L4.1
Format settings, CABAC : Yes
Format settings, ReFrames : 5 frames
Codec ID : V_MPEG4/ISO/AVC
Duration : 2 h 9 min
Bit rate : 4 207 kb/s
Width : 1 280 pixels
Height : 536 pixels
Display aspect ratio : 2.40:1
Frame rate mode : Constant
Frame rate : 24.000 FPS
Color space : YUV
Chroma subsampling : 4:2:0
Bit depth : 8 bits
Scan type : Progressive
Bits/(Pixel*Frame) : 0.255
Stream size : 3.79 GiB (87%)
Writing library : x264 core 155 r2901 7d0ff22
Encoding settings : cabac=1 / ref=5 / deblock=1:-3:-3 / analyse=0x3:0x133 / me=umh / subme=9 / psy=1 / psy_rd=1.00:0.00 / mixed_ref=1 / me_range=16 / chroma_me=1 / trellis=2 / 8x8dct=1 / cqm=0 / deadzone=21,11 / fast_pskip=0 / chroma_qp_offset=-2 / threads=17 / lookahead_threads=1 / sliced_threads=0 / nr=0 / decimate=1 / interlaced=0 / bluray_compat=0 / constrained_intra=0 / bframes=3 / b_pyramid=2 / b_adapt=1 / b_bias=0 / direct=3 / weightb=1 / open_gop=0 / weightp=2 / keyint=240 / keyint_min=24 / scenecut=40 / intra_refresh=0 / rc_lookahead=50 / rc=2pass / mbtree=1 / bitrate=4207 / ratetol=1.0 / qcomp=0.60 / qpmin=0 / qpmax=69 / qpstep=4 / cplxblur=20.0 / qblur=0.5 / ip_ratio=1.40 / aq=1:1.00
Language : English
Default : Yes
Forced : No

Audio
ID : 2
Format : AC-3
Format/Info : Audio Coding 3
Mode extension : CM (complete main)
Format settings, Endianness : Big
Codec ID : A_AC3
Duration : 2 h 9 min
Bit rate mode : Constant
Bit rate : 640 kb/s
Channel(s) : 6 channels
Channel positions : Front: L C R, Side: L R, LFE
Sampling rate : 48.0 kHz
Frame rate : 31.250 FPS (1536 spf)
Bit depth : 16 bits
Compression mode : Lossy
Stream size : 591 MiB (13%)
Language : Chinese
Default : Yes
Forced : No

Text
ID : 3
Format : UTF-8
Codec ID : S_TEXT/UTF8
Codec ID/Info : UTF-8 Plain Text
Duration : 2 h 3 min
Bit rate : 31 b/s
Count of elements : 1255
Stream size : 28.2 KiB (0%)
Title : English
Language : English
Default : Yes
Forced : Yes

Menu
00:00:00.000 : en:00:00:00.000
00:09:09.750 : en:00:09:09.750
00:19:17.125 : en:00:19:17.125
00:27:04.417 : en:00:27:04.417
00:31:07.708 : en:00:31:07.708
00:36:53.167 : en:00:36:53.167
00:42:00.292 : en:00:42:00.292
00:49:10.208 : en:00:49:10.208
00:54:01.917 : en:00:54:01.917
00:59:11.875 : en:00:59:11.875
01:03:47.292 : en:01:03:47.292
01:08:10.500 : en:01:08:10.500
01:12:29.792 : en:01:12:29.792
01:19:49.667 : en:01:19:49.667
01:25:21.958 : en:01:25:21.958
01:31:30.833 : en:01:31:30.833
01:39:10.667 : en:01:39:10.667
01:45:36.083 : en:01:45:36.083
01:53:28.625 : en:01:53:28.625
02:05:46.000 : en:02:05:46.000

General
legend.of.the.demon.cat.2017.1080p.bluray.x264-regret.mkv
Format : Matroska
Format version : Version 4 / Version 2
File size : 7.95 GiB
Duration : 2 h 9 min
Overall bit rate : 8 812 kb/s
Encoded date : UTC 2018-06-02 21:26:47
Writing application : mkvmerge v8.3.0 ('Over the Horizon') 64bit
Writing library : libebml v1.3.1 + libmatroska v1.4.2

Video
ID : 1
Format : AVC
Format/Info : Advanced Video Codec
Format profile : High@L4.1
Format settings, CABAC : Yes
Format settings, ReFrames : 5 frames
Codec ID : V_MPEG4/ISO/AVC
Duration : 2 h 9 min
Bit rate : 8 171 kb/s
Width : 1 920 pixels
Height : 808 pixels
Display aspect ratio : 2.40:1
Frame rate mode : Constant
Frame rate : 24.000 FPS
Color space : YUV
Chroma subsampling : 4:2:0
Bit depth : 8 bits
Scan type : Progressive
Bits/(Pixel*Frame) : 0.219
Stream size : 7.37 GiB (93%)
Writing library : x264 core 155 r2901 7d0ff22
Encoding settings : cabac=1 / ref=5 / deblock=1:-3:-3 / analyse=0x3:0x133 / me=umh / subme=9 / psy=1 / psy_rd=1.00:0.00 / mixed_ref=1 / me_range=16 / chroma_me=1 / trellis=2 / 8x8dct=1 / cqm=0 / deadzone=21,11 / fast_pskip=0 / chroma_qp_offset=-2 / threads=24 / lookahead_threads=2 / sliced_threads=0 / nr=0 / decimate=1 / interlaced=0 / bluray_compat=0 / constrained_intra=0 / bframes=3 / b_pyramid=2 / b_adapt=1 / b_bias=0 / direct=3 / weightb=1 / open_gop=0 / weightp=2 / keyint=240 / keyint_min=24 / scenecut=40 / intra_refresh=0 / rc_lookahead=50 / rc=2pass / mbtree=1 / bitrate=8171 / ratetol=1.0 / qcomp=0.60 / qpmin=0 / qpmax=69 / qpstep=4 / cplxblur=20.0 / qblur=0.5 / ip_ratio=1.40 / aq=1:1.00
Language : English
Default : Yes
Forced : No

Audio
ID : 2
Format : AC-3
Format/Info : Audio Coding 3
Mode extension : CM (complete main)
Format settings, Endianness : Big
Codec ID : A_AC3
Duration : 2 h 9 min
Bit rate mode : Constant
Bit rate : 640 kb/s
Channel(s) : 6 channels
Channel positions : Front: L C R, Side: L R, LFE
Sampling rate : 48.0 kHz
Frame rate : 31.250 FPS (1536 spf)
Bit depth : 16 bits
Compression mode : Lossy
Stream size : 591 MiB (7%)
Language : Chinese
Default : Yes
Forced : No

Text
ID : 3
Format : UTF-8
Codec ID : S_TEXT/UTF8
Codec ID/Info : UTF-8 Plain Text
Duration : 2 h 3 min
Bit rate : 31 b/s
Count of elements : 1255
Stream size : 28.2 KiB (0%)
Title : English
Language : English
Default : Yes
Forced : Yes

Menu
00:00:00.000 : en:00:00:00.000
00:09:09.750 : en:00:09:09.750
00:19:17.125 : en:00:19:17.125
00:27:04.417 : en:00:27:04.417
00:31:07.708 : en:00:31:07.708
00:36:53.167 : en:00:36:53.167
00:42:00.292 : en:00:42:00.292
00:49:10.208 : en:00:49:10.208
00:54:01.917 : en:00:54:01.917
00:59:11.875 : en:00:59:11.875
01:03:47.292 : en:01:03:47.292
01:08:10.500 : en:01:08:10.500
01:12:29.792 : en:01:12:29.792
01:19:49.667 : en:01:19:49.667
01:25:21.958 : en:01:25:21.958
01:31:30.833 : en:01:31:30.833
01:39:10.667 : en:01:39:10.667
01:45:36.083 : en:01:45:36.083
01:53:28.625 : en:01:53:28.625
02:05:46.000 : en:02:05:46.000


BDRip Screenshots

Legend of the Demon Cat / Kûkai (2017)

Legend of the Demon Cat / Kûkai (2017)

Legend of the Demon Cat / Kûkai (2017)


BDRip 720p Screenshots

Legend of the Demon Cat / Kûkai (2017)

Legend of the Demon Cat / Kûkai (2017)

Legend of the Demon Cat / Kûkai (2017)


BDRip 1080p Screenshots

Legend of the Demon Cat / Kûkai (2017)

Legend of the Demon Cat / Kûkai (2017)

Legend of the Demon Cat / Kûkai (2017)


Come Visit My Blog (•‿•)