Tags
Language
Tags

The Spies (1957)

Posted By: Tavaz
720p (HD) / BDRip IMDb
The Spies (1957)

The Spies (1957)
BDRip | MKV | 1280x692 | Français | H264 @ 6320 kbps | FLAC @ 220 kbps | 2 h 6 min | 5.79 GiB
Subtitles: Français, English
Genre: Drama, Thriller

A doctor at a run-down psychiatric hospital is offered a large sum of money to shelter a new patient. Soon the place is full of suspicious and secretive characters, all apparently international secret agents trying to find out who and what the patient is.

93de3d703be6a84b61ee6b3faacdbaa3.mkv (5.8 GB)



General
Unique ID : 183874875005861782643582054059944141392 (0x8A550345832C25C598020764ACF76250)
Complete name : ./93de3d703be6a84b61ee6b3faacdbaa3.mkv
Format : Matroska
Format version : Version 4 / Version 2
File size : 5.79 GiB
Duration : 2 h 6 min
Overall bit rate mode : Variable
Overall bit rate : 6 563 kb/s
Encoded date : UTC 2021-08-11 20:05:40
Writing application : mkvmerge v8.5.1 ('Where you lead I will follow') 64bit
Writing library : libebml v1.3.3 + libmatroska v1.4.4

Video
ID : 1
Format : AVC
Format/Info : Advanced Video Codec
Format profile : High@L4.1
Format settings : CABAC / 9 Ref Frames
Format settings, CABAC : Yes
Format settings, RefFrames : 9 frames
Codec ID : V_MPEG4/ISO/AVC
Duration : 2 h 6 min
Bit rate : 6 321 kb/s
Width : 1 280 pixels
Height : 692 pixels
Display aspect ratio : 1.85:1
Frame rate mode : Constant
Frame rate : 24.000 FPS
Color space : YUV
Chroma subsampling : 4:2:0
Bit depth : 8 bits
Scan type : Progressive
Bits/(Pixel*Frame) : 0.297
Stream size : 5.58 GiB (96%)
Writing library : x264 core 164 r3065 ae03d92
Encoding settings : cabac=1 / ref=9 / deblock=1:-3:-3 / analyse=0x3:0x133 / me=umh / subme=10 / psy=1 / psy_rd=1.00:0.15 / mixed_ref=1 / me_range=24 / chroma_me=1 / trellis=2 / 8x8dct=1 / cqm=0 / deadzone=21,11 / fast_pskip=1 / chroma_qp_offset=-3 / threads=18 / lookahead_threads=3 / sliced_threads=0 / nr=0 / decimate=1 / interlaced=0 / bluray_compat=0 / constrained_intra=0 / bframes=8 / b_pyramid=2 / b_adapt=2 / b_bias=0 / direct=3 / weightb=1 / open_gop=0 / weightp=2 / keyint=250 / keyint_min=24 / scenecut=40 / intra_refresh=0 / rc_lookahead=60 / rc=crf / mbtree=1 / crf=17.0 / qcomp=0.60 / qpmin=0 / qpmax=69 / qpstep=4 / ip_ratio=1.40 / aq=3:0.50
Language : English
Default : Yes
Forced : No
Color range : Limited
Matrix coefficients : BT.709

Audio
ID : 2
Format : FLAC
Format/Info : Free Lossless Audio Codec
Codec ID : A_FLAC
Duration : 2 h 6 min
Bit rate mode : Variable
Bit rate : 220 kb/s
Channel(s) : 2 channels
Channel positions : Front: L R
Sampling rate : 48.0 kHz
Frame rate : 11.719 FPS (4096 SPF)
Bit depth : 16 bits
Stream size : 199 MiB (3%)
Writing library : libFLAC 1.2.1 (UTC 2007-09-17)
Language : French
Default : Yes
Forced : No

Text #1
ID : 3
Format : UTF-8
Codec ID : S_TEXT/UTF8
Codec ID/Info : UTF-8 Plain Text
Duration : 2 h 5 min
Bit rate : 57 b/s
Count of elements : 1286
Stream size : 53.2 KiB (0%)
Title : English
Language : English
Default : Yes
Forced : Yes

Text #2
ID : 4
Format : UTF-8
Codec ID : S_TEXT/UTF8
Codec ID/Info : UTF-8 Plain Text
Duration : 1 h 7 min
Bit rate : 2 b/s
Count of elements : 44
Stream size : 1.25 KiB (0%)
Title : French forced
Language : French
Default : No
Forced : No

Text #3
ID : 5
Format : PGS
Muxing mode : zlib
Codec ID : S_HDMV/PGS
Codec ID/Info : Picture based subtitle format used on BDs/HD-DVDs
Duration : 1 h 7 min
Bit rate : 1 750 b/s
Count of elements : 88
Stream size : 865 KiB (0%)
Title : French forced
Language : French
Default : No
Forced : No

Text #4
ID : 6
Format : UTF-8
Codec ID : S_TEXT/UTF8
Codec ID/Info : UTF-8 Plain Text
Duration : 2 h 6 min
Bit rate : 70 b/s
Count of elements : 2033
Stream size : 65.3 KiB (0%)
Title : French SDH
Language : French
Default : No
Forced : No

Text #5
ID : 7
Format : PGS
Muxing mode : zlib
Codec ID : S_HDMV/PGS
Codec ID/Info : Picture based subtitle format used on BDs/HD-DVDs
Duration : 2 h 6 min
Bit rate : 18.7 kb/s
Count of elements : 4066
Stream size : 16.9 MiB (0%)
Title : French SDH
Language : French
Default : No
Forced : No

Menu
00:00:00.000 : en:00:00:00.000
00:09:22.000 : en:00:09:22.000
00:17:31.000 : en:00:17:31.000
00:25:38.375 : en:00:25:38.375
00:36:35.250 : en:00:36:35.250
00:47:57.667 : en:00:47:57.667
00:57:16.000 : en:00:57:16.000
01:05:30.334 : en:01:05:30.334
01:14:17.375 : en:01:14:17.375
01:24:34.625 : en:01:24:34.625
01:31:50.459 : en:01:31:50.459
01:40:49.417 : en:01:40:49.417
01:52:52.834 : en:01:52:52.834
02:03:19.709 : en:02:03:19.709





The Spies (1957)


The Spies (1957)


The Spies (1957)


The Spies (1957)


The Spies (1957)