Les Moissons Du Futur / The Harvest Of The Future (2012)

Posted By: ParRus
Les Moissons Du Futur / The Harvest Of The Future (2012)

Les Moissons Du Futur / The Harvest Of The Future (2012)
HDTV-Rip | MKV | AVC 712x568, ~1887 Kbps | 1h 35mn | 1.68 GB
English: Vorbis, 2 ch, 96 kbps | French: AC3, 2 ch, 384 kbps | German: Vorbis, 2 ch, 96 kbps
Subtitles: English, French, German | Genre: Documentary

Marie-Monique Robin investigates by gathering interviews with farmers, agricultural engineers, politicians and heads of international organizations on four continents (Africa, Asia, North America and Europe). With Harvests of the Future, one discovers that another commercial and agricultural model that is innovative and productive has already shown its merits, returning to farmers a key role in mankind's future.
Directors: Marie-Monique Robin
Country: France
IMDB info

General
Complete name : Les.Moissons.Du.Futur.2012.mkv
Format : Matroska
Format version : Version 2
File size : 1.68 GiB
Duration : 1h 35mn
Overall bit rate mode : Variable
Overall bit rate : 2 513 Kbps
Writing application : HandBrake 0.9.8
Writing library : libmkv 0.6.5
Video #1
ID : 1
Format : AVC
Format/Info : Advanced Video Codec
Format profile : High@L3.1
Format settings, CABAC : Yes
Format settings, ReFrames : 9 frames
Codec ID : V_MPEG4/ISO/AVC
Duration : 1h 35mn
Bit rate : 1 887 Kbps
Width : 712 pixels
Height : 568 pixels
Display aspect ratio : 16:9
Original display aspect ratio : 16:9
Frame rate : 25.000 fps
Color space : YUV
Chroma subsampling : 4:2:0
Bit depth : 8 bits
Scan type : Progressive
Bits/(Pixel*Frame) : 0.187
Stream size : 1.26 GiB (75%)
Writing library : x264 core 120
Encoding settings : cabac=1 / ref=9 / deblock=1:-2:-2 / analyse=0x3:0x133 / me=umh / subme=9 / psy=1 / psy_rd=1.00:0.00 / mixed_ref=1 / me_range=24 / chroma_me=1 / trellis=2 / 8x8dct=1 / cqm=0 / deadzone=21,11 / fast_pskip=0 / chroma_qp_offset=-2 / threads=12 / sliced_threads=0 / nr=0 / decimate=1 / interlaced=0 / bluray_compat=0 / constrained_intra=0 / bframes=6 / b_pyramid=2 / b_adapt=2 / b_bias=0 / direct=3 / weightb=1 / open_gop=0 / weightp=2 / keyint=250 / keyint_min=25 / scenecut=40 / intra_refresh=0 / rc_lookahead=50 / rc=crf / mbtree=1 / crf=19.0 / qcomp=0.60 / qpmin=3 / qpmax=69 / qpstep=4 / ip_ratio=1.40 / aq=1:1.10
Language : English
Color primaries : BT.601-6 525, BT.1358 525, BT.1700 NTSC, SMPTE 170M
Transfer characteristics : BT.709-5, BT.1361
Matrix coefficients : BT.601-6 525, BT.1358 525, BT.1700 NTSC, SMPTE 170M
Audio #2
ID : 2
Format : AC-3
Format/Info : Audio Coding 3
Mode extension : CM (complete main)
Codec ID : A_AC3
Duration : 1h 35mn
Bit rate mode : Constant
Bit rate : 384 Kbps
Channel(s) : 2 channels
Channel positions : Front: L R
Sampling rate : 48.0 KHz
Bit depth : 16 bits
Compression mode : Lossy
Stream size : 263 MiB (15%)
Language : French
Audio #3
ID : 3
Format : Vorbis
Format settings, Floor : 1
Codec ID : A_VORBIS
Duration : 1h 35mn
Bit rate mode : Variable
Bit rate : 96.0 Kbps
Channel(s) : 2 channels
Sampling rate : 48.0 KHz
Compression mode : Lossy
Stream size : 65.8 MiB (4%)
Writing library : aoTuV 20110424 (UTC 2011-04-24)
Language : English
Writing application : HandBrake
Audio #4
ID : 4
Format : Vorbis
Format settings, Floor : 1
Codec ID : A_VORBIS
Duration : 1h 35mn
Bit rate mode : Variable
Bit rate : 96.0 Kbps
Channel(s) : 2 channels
Sampling rate : 48.0 KHz
Compression mode : Lossy
Stream size : 65.8 MiB (4%)
Writing library : aoTuV 20110424 (UTC 2011-04-24)
Language : German
Writing application : HandBrake
Text #5
ID : 5
Format : UTF-8
Codec ID : S_TEXT/UTF8
Codec ID/Info : UTF-8 Plain Text
Language : English
Text #6
ID : 6
Format : UTF-8
Codec ID : S_TEXT/UTF8
Codec ID/Info : UTF-8 Plain Text
Language : French
Text #7
ID : 7
Format : UTF-8
Codec ID : S_TEXT/UTF8
Codec ID/Info : UTF-8 Plain Text
Language : German

ScreenShots

Les Moissons Du Futur / The Harvest Of The Future (2012)

Les Moissons Du Futur / The Harvest Of The Future (2012)

Les Moissons Du Futur / The Harvest Of The Future (2012)

Les Moissons Du Futur / The Harvest Of The Future (2012)

Les Moissons Du Futur / The Harvest Of The Future (2012)

For more, Visit my AH-blog

no mirrors please, Follow The Rules