Tags
Language
Tags

Les disparus de Saint-Agil (1938)

Posted By:
1080p (FullHD) / BluRay Remux IMDb
Les disparus de Saint-Agil (1938)

Les disparus de Saint-Agil (1938)
BluRay Remux | MKV | 1920x1080 | French | H264 @ 31595 kbps | DTS | 1 h 38 min | 22.7 GiB
Subtitles: French, English
Genre: Adventure, Drama, Mystery

Au collège de Saint-Agil, trois élèves, Beaume, Sorgue et Macroy, ont créé la société secrète des «Chiche-Capon». Les conspirateurs se réunissent la nuit dans la salle de sciences naturelles et préparent leur départ pour l'Amérique, où la fortune les attend. A l'issue d'une réunion, Sorgue surprend un inconnu dans l'établissement. Le mystérieux individu s'en va comme il était venu : en passant à travers un mur. Convoqué le lendemain chez le directeur, pour cause de chahut, Sorgue disparaît au détour d'un couloir. Une carte postale d'Amérique rassure bientôt ses compères et la direction du collège. Lemesle, l'aigri professeur de dessin, accuse son austère collègue Walter d'être responsable de cette disparition. Quinze jours plus tard, au détour du même couloir, Macroy s'évanouit à son tour…

Les.disparus.de.St.Agil.1938.French.1080p.BluRay.Remux.AVC.DTS.HD.MA-HDForever=307961b09ce44c2a6ce9da82ab98f442692d42cf.part1.rar (8.0 GB)
Les.disparus.de.St.Agil.1938.French.1080p.BluRay.Remux.AVC.DTS.HD.MA-HDForever=307961b09ce44c2a6ce9da82ab98f442692d42cf.part2.rar (8.0 GB)
Les.disparus.de.St.Agil.1938.French.1080p.BluRay.Remux.AVC.DTS.HD.MA-HDForever=307961b09ce44c2a6ce9da82ab98f442692d42cf.part3.rar (7.1 GB)



General
Complete name : ./ce8c5cedcadc4cf285eee279b20aec5a.mkv
Format : Matroska
Format version : Version 4 / Version 2
File size : 22.7 GiB
Duration : 1 h 38 min
Overall bit rate mode : Variable
Overall bit rate : 32.9 Mb/s
Encoded date : UTC 2018-06-21 14:09:41
Writing application : mkvmerge v8.8.0 ('Wind at my back') 64bit
Writing library : libebml v1.3.3 + libmatroska v1.4.4

Video
ID : 1
Format : AVC
Format/Info : Advanced Video Codec
Format profile : Main@L4.1
Format settings : CABAC / 4 Ref Frames
Format settings, CABAC : Yes
Format settings, RefFrames : 4 frames
Format settings, GOP : M=1, N=12
Codec ID : V_MPEG4/ISO/AVC
Duration : 1 h 38 min
Bit rate mode : Variable
Bit rate : 31.6 Mb/s
Maximum bit rate : 39.6 Mb/s
Width : 1 920 pixels
Height : 1 080 pixels
Display aspect ratio : 16:9
Frame rate mode : Constant
Frame rate : 23.976 (24000/1001) FPS
Color space : YUV
Chroma subsampling : 4:2:0
Bit depth : 8 bits
Scan type : Progressive
Bits/(Pixel*Frame) : 0.636
Stream size : 21.8 GiB (96%)
Title : MPEG-4 AVC Video / 31600 kbps / 1080p / 23,976 fps / 16:9 / Main Profile 4.1
Language : French
Default : No
Forced : No
Color range : Limited
Color primaries : BT.709
Transfer characteristics : BT.709
Matrix coefficients : BT.709

Audio
ID : 2
Format : DTS
Format/Info : Digital Theater Systems
Format profile : MA / Core
Mode : 16
Format settings, Endianness : Big
Codec ID : A_DTS
Duration : 1 h 38 min
Bit rate mode : Variable / Constant
Bit rate : 1 280 kb/s / 768 kb/s
Channel(s) : 2 channels
Channel positions : Front: L R
Sampling rate : 48.0 kHz
Frame rate : 93.750 FPS (512 SPF)
Bit depth : 24 bits
Compression mode : Lossless / Lossy
Stream size : 918 MiB (4%)
Title : French VOF DTSHDMA 2.0 1297Kbps
Language : French
Default : No
Forced : No

Text #1
ID : 3
Format : PGS
Muxing mode : zlib
Codec ID : S_HDMV/PGS
Codec ID/Info : Picture based subtitle format used on BDs/HD-DVDs
Duration : 1 h 38 min
Bit rate : 9 753 b/s
Count of elements : 2636
Stream size : 6.85 MiB (0%)
Title : French SDH PGS
Language : French
Default : No
Forced : No

Text #2
ID : 4
Format : PGS
Muxing mode : zlib
Codec ID : S_HDMV/PGS
Codec ID/Info : Picture based subtitle format used on BDs/HD-DVDs
Duration : 1 h 38 min
Bit rate : 8 129 b/s
Count of elements : 2408
Stream size : 5.73 MiB (0%)
Title : English Full PGS
Language : English
Default : No
Forced : No

Menu
00:00:00.000 : en:Chapter 1
00:02:22.642 : en:Chapter 2
00:11:38.114 : en:Chapter 3
00:20:33.273 : en:Chapter 4
00:28:11.940 : en:Chapter 5
00:36:17.925 : en:Chapter 6
00:42:35.803 : en:Chapter 7
00:53:45.722 : en:Chapter 8
01:02:20.027 : en:Chapter 9
01:11:47.761 : en:Chapter 10
01:22:23.939 : en:Chapter 11
01:32:51.566 : en:Chapter 12





Les disparus de Saint-Agil (1938)


Les disparus de Saint-Agil (1938)


Les disparus de Saint-Agil (1938)


Les disparus de Saint-Agil (1938)


Les disparus de Saint-Agil (1938)