Tags
Language
Tags

Les crevettes pailletées / The Shiny Shrimps (2019)

Posted By: JohnSmith
1080p (FullHD) / BDRip IMDb
Les crevettes pailletées / The Shiny Shrimps (2019)

Les crevettes pailletées / The Shiny Shrimps (2019)
BDRip 720p | MKV / AVC@4570 kb/s | 1280x608 | 1h 42mn
Français (VFi): DTS, 1509 kb/s (6 ch) | Subtitles: Français, English | 4.39 GB
BDRip 1080p | MKV / AVC@9130 kb/s | 1920x912 | 1h 42mn
Français (VFi): DTS, 1509 kb/s (6 ch) | Subtitles: Français, English | 7.67 GB
Genre: Comedy

Après avoir tenu des propos homophobes, Mathias Le Goff, vice-champion du monde de natation, est condamné à entraîner "Les Crevettes Pailletées", une équipe de water-polo gay, davantage motivée par la fête que par la compétition. Cet explosif attelage va alors se rendre en Croatie pour participer aux Gay Games, le plus grand rassemblement sportif homosexuel du monde. Le chemin parcouru sera l’occasion pour Mathias de découvrir un univers décalé qui va bousculer tous ses repères et lui permettre de revoir ses priorités dans la vie.


General
Unique ID : 182567809243188361071364848121978462105 (0x895947F43884DB3CAA18B56623DA9F99)
Complete name : A:\Les.Crevettes.Pailletees.2019.FRENCH.720p.BluRay.mkv
Format : Matroska
Format version : Version 2
File size : 4.39 GiB
Duration : 1 h 42 min
Overall bit rate : 6 107 kb/s
Encoded date : UTC 2019-09-29 09:06:23
Writing application : mkvmerge v7.8.0 ('River Man') 32bit built on Apr 3 2015 12:11:22
Writing library : libebml v1.3.1 + libmatroska v1.4.2

Video
ID : 1
Format : AVC
Format/Info : Advanced Video Codec
Format profile : High@L4.1
Format settings : CABAC / 4 Ref Frames
Format settings, CABAC : Yes
Format settings, Reference : 4 frames
Codec ID : V_MPEG4/ISO/AVC
Duration : 1 h 42 min
Bit rate : 4 571 kb/s
Width : 1 280 pixels
Height : 608 pixels
Display aspect ratio : 2.105
Frame rate mode : Constant
Frame rate : 24.000 FPS
Color space : YUV
Chroma subsampling : 4:2:0
Bit depth : 8 bits
Scan type : Progressive
Bits/(Pixel*Frame) : 0.245
Stream size : 3.22 GiB (73%)
Writing library : x264 core 152 r2851 ba24899
Encoding settings : cabac=1 / ref=3 / deblock=1:0:0 / analyse=0x3:0x113 / me=hex / subme=7 / psy=1 / psy_rd=1.00:0.00 / mixed_ref=1 / me_range=16 / chroma_me=1 / trellis=1 / 8x8dct=1 / cqm=0 / deadzone=21,11 / fast_pskip=1 / chroma_qp_offset=-2 / threads=19 / lookahead_threads=3 / sliced_threads=0 / nr=0 / decimate=1 / interlaced=0 / bluray_compat=0 / constrained_intra=0 / bframes=3 / b_pyramid=2 / b_adapt=1 / b_bias=0 / direct=1 / weightb=1 / open_gop=0 / weightp=2 / keyint=240 / keyint_min=24 / scenecut=40 / intra_refresh=0 / rc_lookahead=40 / rc=2pass / mbtree=1 / bitrate=4571 / ratetol=1.0 / qcomp=0.60 / qpmin=0 / qpmax=69 / qpstep=4 / cplxblur=20.0 / qblur=0.5 / vbv_maxrate=62500 / vbv_bufsize=78125 / nal_hrd=none / filler=0 / ip_ratio=1.40 / aq=1:1.00
Default : Yes
Forced : No

Audio
ID : 2
Format : DTS
Format/Info : Digital Theater Systems
Codec ID : A_DTS
Duration : 1 h 42 min
Bit rate mode : Constant
Bit rate : 1 509 kb/s
Channel(s) : 6 channels
Channel layout : C L R Ls Rs LFE
Sampling rate : 48.0 kHz
Frame rate : 93.750 FPS (512 SPF)
Bit depth : 24 bits
Compression mode : Lossy
Stream size : 1.09 GiB (25%)
Language : French
Default : Yes
Forced : No

Text #1
ID : 3
Format : UTF-8
Codec ID : S_TEXT/UTF8
Codec ID/Info : UTF-8 Plain Text
Title : Forced
Language : French
Default : Yes
Forced : No

Text #2
ID : 4
Format : PGS
Muxing mode : zlib
Codec ID : S_HDMV/PGS
Codec ID/Info : Picture based subtitle format used on BDs/HD-DVDs
Language : French
Default : No
Forced : No

Text #3
ID : 5
Format : PGS
Muxing mode : zlib
Codec ID : S_HDMV/PGS
Codec ID/Info : Picture based subtitle format used on BDs/HD-DVDs
Language : English
Default : No
Forced : No

Menu
00:00:00.000 : :Chapter 01
00:08:06.000 : :Chapter 02
00:17:33.792 : :Chapter 03
00:26:45.750 : :Chapter 04
00:36:18.917 : :Chapter 05
00:45:20.417 : :Chapter 06
00:54:19.708 : :Chapter 07
01:02:09.792 : :Chapter 08
01:10:47.458 : :Chapter 09
01:18:43.708 : :Chapter 10
01:25:16.000 : :Chapter 11
01:38:28.208 : :Chapter 12





General
Unique ID : 237033576041369699634041594696870474205 (0xB2530195D1FEDA56BF45F3CBB10931DD)
Complete name : A:\Les.Crevettes.Pailletees.2019.FRENCH.1080p.BluRay.mkv
Format : Matroska
Format version : Version 2
File size : 7.67 GiB
Duration : 1 h 42 min
Overall bit rate : 10.7 Mb/s
Encoded date : UTC 2019-09-29 08:53:53
Writing application : mkvmerge v7.8.0 ('River Man') 32bit built on Apr 3 2015 12:11:22
Writing library : libebml v1.3.1 + libmatroska v1.4.2

Video
ID : 1
Format : AVC
Format/Info : Advanced Video Codec
Format profile : High@L4.1
Format settings : CABAC / 4 Ref Frames
Format settings, CABAC : Yes
Format settings, Reference : 4 frames
Codec ID : V_MPEG4/ISO/AVC
Duration : 1 h 42 min
Bit rate : 9 132 kb/s
Width : 1 920 pixels
Height : 912 pixels
Display aspect ratio : 2.105
Frame rate mode : Constant
Frame rate : 24.000 FPS
Color space : YUV
Chroma subsampling : 4:2:0
Bit depth : 8 bits
Scan type : Progressive
Bits/(Pixel*Frame) : 0.217
Stream size : 6.43 GiB (84%)
Writing library : x264 core 152 r2851 ba24899
Encoding settings : cabac=1 / ref=3 / deblock=1:0:0 / analyse=0x3:0x113 / me=hex / subme=7 / psy=1 / psy_rd=1.00:0.00 / mixed_ref=1 / me_range=16 / chroma_me=1 / trellis=1 / 8x8dct=1 / cqm=0 / deadzone=21,11 / fast_pskip=1 / chroma_qp_offset=-2 / threads=12 / lookahead_threads=2 / sliced_threads=0 / nr=0 / decimate=1 / interlaced=0 / bluray_compat=0 / constrained_intra=0 / bframes=3 / b_pyramid=2 / b_adapt=1 / b_bias=0 / direct=1 / weightb=1 / open_gop=0 / weightp=2 / keyint=240 / keyint_min=24 / scenecut=40 / intra_refresh=0 / rc_lookahead=40 / rc=2pass / mbtree=1 / bitrate=9132 / ratetol=1.0 / qcomp=0.60 / qpmin=0 / qpmax=69 / qpstep=4 / cplxblur=20.0 / qblur=0.5 / vbv_maxrate=62500 / vbv_bufsize=78125 / nal_hrd=none / filler=0 / ip_ratio=1.40 / aq=1:1.00
Default : Yes
Forced : No

Audio
ID : 2
Format : DTS
Format/Info : Digital Theater Systems
Codec ID : A_DTS
Duration : 1 h 42 min
Bit rate mode : Constant
Bit rate : 1 509 kb/s
Channel(s) : 6 channels
Channel layout : C L R Ls Rs LFE
Sampling rate : 48.0 kHz
Frame rate : 93.750 FPS (512 SPF)
Bit depth : 24 bits
Compression mode : Lossy
Stream size : 1.09 GiB (14%)
Language : French
Default : Yes
Forced : No

Text #1
ID : 3
Format : UTF-8
Codec ID : S_TEXT/UTF8
Codec ID/Info : UTF-8 Plain Text
Title : Forced
Language : French
Default : Yes
Forced : No

Text #2
ID : 4
Format : PGS
Muxing mode : zlib
Codec ID : S_HDMV/PGS
Codec ID/Info : Picture based subtitle format used on BDs/HD-DVDs
Language : French
Default : No
Forced : No

Text #3
ID : 5
Format : PGS
Muxing mode : zlib
Codec ID : S_HDMV/PGS
Codec ID/Info : Picture based subtitle format used on BDs/HD-DVDs
Language : English
Default : No
Forced : No

Menu
00:00:00.000 : :Chapter 01
00:08:06.000 : :Chapter 02
00:17:33.792 : :Chapter 03
00:26:45.750 : :Chapter 04
00:36:18.917 : :Chapter 05
00:45:20.417 : :Chapter 06
00:54:19.708 : :Chapter 07
01:02:09.792 : :Chapter 08
01:10:47.458 : :Chapter 09
01:18:43.708 : :Chapter 10
01:25:16.000 : :Chapter 11
01:38:28.208 : :Chapter 12




Screenshots BDRip 720p

Les crevettes pailletées / The Shiny Shrimps (2019)

Les crevettes pailletées / The Shiny Shrimps (2019)

Les crevettes pailletées / The Shiny Shrimps (2019)


Screenshots BDRip 1080p

Les crevettes pailletées / The Shiny Shrimps (2019)

Les crevettes pailletées / The Shiny Shrimps (2019)

Les crevettes pailletées / The Shiny Shrimps (2019)