Tags
Language
Tags

Les plus belles années d'une vie / The Best Years of a Life (2019)

Posted By: JohnSmith
1080p (FullHD) / WEB-DL IMDb
Les plus belles années d'une vie / The Best Years of a Life (2019)

Les plus belles années d'une vie / The Best Years of a Life (2019)
WEB-DL 1080p | MKV / AVC@4560 kb/s | 1916x800 | 1h 30mn | Français (VFi): AC3, 384 kb/s (6 ch) | 3.12 GB
Genre: Drama

Ils se sont connus voilà bien longtemps. Un homme et une femme, dont l’histoire d’amour fulgurante, inattendue, saisie dans une parenthèse devenue mythique, aura révolutionné notre façon de voir l’amour.
Aujourd’hui, l’ancien pilote de course se perd un peu sur les chemins de sa mémoire. Pour l’aider, son fils va retrouver celle que son père n’a pas su garder mais qu’il évoque sans cesse. Anne va revoir Jean-Louis et reprendre leur histoire où ils l’avaient laissée…


General
Unique ID : 203596829236391166251009671702373495138 (0x992B52B02F4C37F9C112E87032247162)
Complete name : C:\Les.Plus.Belles.Années.d'une.Vie.2019.FRENCH.1080p.WEB.mkv
Format : Matroska
Format version : Version 4
File size : 3.12 GiB
Duration : 1 h 30 min
Overall bit rate : 4 947 kb/s
Encoded date : UTC 2019-10-03 10:38:54
Writing application : mkvmerge v37.0.0 ('Leave It') 64-bit
Writing library : libebml v1.3.9 + libmatroska v1.5.2

Video
ID : 2
Format : AVC
Format/Info : Advanced Video Codec
Format profile : High@L4
Format settings : CABAC / 5 Ref Frames
Format settings, CABAC : Yes
Format settings, Reference : 5 frames
Codec ID : V_MPEG4/ISO/AVC
Duration : 1 h 30 min
Bit rate : 4 561 kb/s
Width : 1 916 pixels
Height : 800 pixels
Display aspect ratio : 2.40:1
Frame rate mode : Constant
Frame rate : 24.000 FPS
Color space : YUV
Chroma subsampling : 4:2:0
Bit depth : 8 bits
Scan type : Progressive
Bits/(Pixel*Frame) : 0.124
Stream size : 2.88 GiB (92%)
Language : English
Default : Yes
Forced : No
Color range : Limited
Color primaries : BT.709
Transfer characteristics : BT.709
Matrix coefficients : BT.709

Audio
ID : 1
Format : AC-3
Format/Info : Audio Coding 3
Commercial name : Dolby Digital
Codec ID : A_AC3
Duration : 1 h 30 min
Bit rate mode : Constant
Bit rate : 384 kb/s
Channel(s) : 6 channels
Channel layout : L R C LFE Ls Rs
Sampling rate : 48.0 kHz
Frame rate : 31.250 FPS (1536 SPF)
Bit depth : 16 bits
Compression mode : Lossy
Delay relative to video : -42 ms
Stream size : 248 MiB (8%)
Language : French
Service kind : Complete Main
Default : Yes
Forced : No

Menu
00:00:00.000 : en:Chapitre 01
00:09:00.000 : en:Chapitre 02
00:18:00.000 : en:Chapitre 03
00:27:00.000 : en:Chapitre 04
00:36:00.000 : en:Chapitre 05
00:45:00.000 : en:Chapitre 06
00:54:00.000 : en:Chapitre 07
01:03:00.000 : en:Chapitre 08
01:12:00.000 : en:Chapitre 09
01:21:00.000 : en:Chapitre 10




Screenshots

Les plus belles années d'une vie / The Best Years of a Life (2019)

Les plus belles années d'une vie / The Best Years of a Life (2019)

Les plus belles années d'une vie / The Best Years of a Life (2019)