BBC - Letters from Baghdad (2017)

Posted By: Tutorial
1080p (FullHD) / HDTV IMDb
BBC - Letters from Baghdad (2017)

BBC - Letters from Baghdad (2017)
HDTV | 1920 x 1080 | .MKV/AVC @ 8173 Kbps | 1 h 26 min | 5.08 GB
Audio: English AC-3 192 Kbps, 2 channels | Subs: English
Genre: Documentary

The extraordinary and dramatic story of Gertrude Bell, the most powerful woman in the British Empire in her day. She shaped the modern Middle East after World War I in ways that still reverberate today. More influential than her friend and colleague Lawrence of Arabia, Bell helped draw the borders of Iraq and established the Iraq Museum.

Using never-seen-before footage of the region, the film chronicles Bell's extraordinary journey into both the uncharted Arabian desert and the inner sanctum of British male colonial power. With unique access to documents from the Iraq National Library and Archive and Gertrude Bell's own 1,600 letters, the story is told entirely in the words of the players of the day, excerpted verbatim from intimate letters, private diaries and secret communiques. It is a unique look at both a remarkable woman and the tangled history of Iraq.

Related Documentaries:
Letters from Baghdad (2016)
Letters from Baghdad (2016)
Channel 4 - Islam: The Untold Story (2012)
Channel 4 - Seven Wonders of the Muslim World (2008)
BBC - The Ottomans: Europe's Muslim Emperors (2013)
BBC - Jerusalem: The Making of a Holy City (2012)
PBS - Jerusalem: Center of the World (2009)
Jerusalem (2013)
Jerusalem (2013)
The Sacred City (2016)
BBC - The Life of Muhammad (2011)
PBS Empires - Islam: Empire of Faith (2000)
BBC - The Story of the Jews (2013)

General
Unique ID : 241221680330863629827679454079431557586 (0xB5799B11AD0267A1B78284ED33E141D2)
Complete name : Letters.from.Baghdad.mkv
Format : Matroska
Format version : Version 4 / Version 2
File size : 5.08 GiB
Duration : 1 h 26 min
Overall bit rate : 8 367 kb/s
Encoded date : UTC 2017-09-29 00:21:48
Writing application : mkvmerge v15.0.0 ('Duel with the Devil') 64-bit
Writing library : libebml v1.3.5 + libmatroska v1.4.5

Video
ID : 1
Format : AVC
Format/Info : Advanced Video Codec
Format profile : High@L4
Format settings, CABAC : Yes
Format settings, ReFrames : 4 frames
Format settings, GOP : M=8, N=24
Codec ID : V_MPEG4/ISO/AVC
Duration : 1 h 26 min
Bit rate : 8 173 kb/s
Width : 1 920 pixels
Height : 1 080 pixels
Display aspect ratio : 16:9
Frame rate mode : Variable
Frame rate : 25.045 FPS
Original frame rate : 25.000 FPS
Standard : Component
Color space : YUV
Chroma subsampling : 4:2:0
Bit depth : 8 bits
Scan type : MBAFF
Scan type, store method : Interleaved fields
Scan order : Top Field First
Bits/(Pixel*Frame) : 0.157
Stream size : 4.96 GiB (98%)
Default : Yes
Forced : No
Color range : Limited
Color primaries : BT.709
Transfer characteristics : BT.709
Matrix coefficients : BT.709

Audio
ID : 2
Format : AC-3
Format/Info : Audio Coding 3
Format settings, Endianness : Big
Codec ID : A_AC3
Duration : 1 h 26 min
Bit rate mode : Constant
Bit rate : 192 kb/s
Channel(s) : 2 channels
Channel positions : Front: L R
Sampling rate : 48.0 kHz
Frame rate : 31.250 FPS (1536 spf)
Bit depth : 16 bits
Compression mode : Lossy
Stream size : 119 MiB (2%)
Language : English
Service kind : Complete Main
Default : Yes
Forced : No

Text
ID : 3
Format : UTF-8
Codec ID : S_TEXT/UTF8
Codec ID/Info : UTF-8 Plain Text
Duration : 1 h 24 min
Bit rate : 73 b/s
Count of elements : 1034
Stream size : 45.6 KiB (0%)
Language : English
Default : Yes
Forced : No
Screenshots

BBC - Letters from Baghdad (2017)

BBC - Letters from Baghdad (2017)

BBC - Letters from Baghdad (2017)

Welcome to my blog - daily update!

BBC - Letters from Baghdad (2017)