Love Letters / Lettres d'amour (1942)

Posted By: RSU75
SD / DVDRip IMDb
Love Letters / Lettres d'amour (1942)

Love Letters / Lettres d'amour (1942) [Criterion Collection, Eclipse Series 45]
DVDRip | MKV | AVC 720x480 ~ 1.6 Mbps | 1hr 32mn | 1.28 GB
French: Dolby AC3, 1 ch, 384 kbps
Subtitles: English
Genre: Drama
IMDB Rating: 6.9/10 (22 votes)
Criterion.com


Director: Claude Autant-Lara
Writers: Jean Aurenche (adaptation), Jean Aurenche (dialogue)
Stars: Odette Joyeux, François Périer, Simone Renant

A deceptive lightness distinguishes this farcical second feature made by Claude Autant-Lara while Germany occupied France. During the reign of Napoléon III, a plucky businesswoman (Odette Joyeux) agrees to receive love letters to a prefect’s wife from a young official, and soon finds herself embroiled in a scandal that inflames a town’s class tensions. A transporting period piece with ornate costumes by Christian Dior, Lettres d’amour paints a blithely pointed portrait of life in a highly stratified society.

Eclipse Series 45: Claude Autant-Lara—Four Romantic Escapes from Occupied France:
- Le mariage de Chiffon (Claude Autant-Lara, 1942)
- Lettres d’amour (Claude Autant-Lara, 1942)
- Douce (Claude Autant-Lara, 1943)
- Sylvie et le fantôme (Claude Autant-Lara, 1946)




General
Unique ID : 218566690811159536411896389270401960760 (0xA46E69D907FF268C927F4BA91E53CB38)
Complete name : M:\LettresDamour.42.Cr.Dr.Eclipse\LettresDamour.42.Cr.Dr.Eclipse.mkv
Format : Matroska
Format version : Version 4 / Version 2
File size : 1.28 GiB
Duration : 1 h 32 min
Overall bit rate : 1 983 kb/s
Movie name : Release RSU75
Encoded date : UTC 2018-03-29 15:38:27
Writing application : mkvmerge v6.6.0 ('The Edge Of The In Between') built on Dec 1 2013 17:55:00
Writing library : libebml v1.3.0 + libmatroska v1.4.1

Video
ID : 1
Format : AVC
Format/Info : Advanced Video Codec
Format profile : High@L3
Format settings : CABAC / 4 Ref Frames
Format settings, CABAC : Yes
Format settings, RefFrames : 4 frames
Codec ID : V_MPEG4/ISO/AVC
Duration : 1 h 32 min
Bit rate : 1 600 kb/s
Width : 720 pixels
Height : 480 pixels
Display aspect ratio : 4:3
Frame rate mode : Constant
Frame rate : 23.976 (23976/1000) FPS
Color space : YUV
Chroma subsampling : 4:2:0
Bit depth : 8 bits
Scan type : Progressive
Bits/(Pixel*Frame) : 0.193
Stream size : 1.00 GiB (79%)
Writing library : x264 core 144 r2533 c8a773e
Encoding settings : cabac=1 / ref=4 / deblock=1:0:0 / analyse=0x3:0x113 / me=umh / subme=8 / psy=1 / psy_rd=1.00:0.00 / mixed_ref=1 / me_range=24 / chroma_me=1 / trellis=1 / 8x8dct=1 / cqm=0 / deadzone=21,11 / fast_pskip=1 / chroma_qp_offset=-2 / threads=3 / lookahead_threads=1 / sliced_threads=0 / nr=0 / decimate=1 / interlaced=0 / bluray_compat=0 / constrained_intra=0 / bframes=3 / b_pyramid=0 / b_adapt=2 / b_bias=0 / direct=3 / weightb=1 / open_gop=0 / weightp=2 / keyint=250 / keyint_min=25 / scenecut=40 / intra_refresh=0 / rc_lookahead=40 / rc=abr / mbtree=1 / bitrate=1600 / ratetol=1.0 / qcomp=0.60 / qpmin=10 / qpmax=51 / qpstep=4 / ip_ratio=1.41 / aq=1:1.00
Language : English
Default : Yes
Forced : No

Audio
ID : 2
Format : AC-3
Format/Info : Audio Coding 3
Format settings, Endianness : Big
Codec ID : A_AC3
Duration : 1 h 32 min
Bit rate mode : Constant
Bit rate : 384 kb/s
Channel(s) : 1 channel
Channel positions : Front: C
Sampling rate : 48.0 kHz
Frame rate : 31.250 FPS (1536 SPF)
Bit depth : 16 bits
Compression mode : Lossy
Delay relative to video : -42 ms
Stream size : 253 MiB (19%)
Language : French
Service kind : Complete Main
Default : Yes
Forced : No

Text
ID : 3
Format : VobSub
Muxing mode : zlib
Codec ID : S_VOBSUB
Codec ID/Info : Picture based subtitle format used on DVDs
Language : English
Default : Yes
Forced : No

Menu
00:00:00.000 : en:Chapter 01
00:07:16.936 : en:Chapter 02
00:13:38.517 : en:Chapter 03
00:17:46.899 : en:Chapter 04
00:20:46.245 : en:Chapter 05
00:22:38.690 : en:Chapter 06
00:26:50.442 : en:Chapter 07
00:30:31.830 : en:Chapter 08
00:38:27.338 : en:Chapter 09
00:43:06.584 : en:Chapter 10
00:46:25.616 : en:Chapter 11
00:53:39.416 : en:Chapter 12
01:01:39.228 : en:Chapter 13
01:06:58.848 : en:Chapter 14
01:15:51.547 : en:Chapter 15
01:24:39.574 : en:Chapter 16





Screenshots (click to enlarge to original size):

Love Letters / Lettres d'amour (1942)

Love Letters / Lettres d'amour (1942)

Love Letters / Lettres d'amour (1942)


Love Letters / Lettres d'amour (1942)




–––––––––––––––––––––––––––––––––––––––-
>>> "DVDRip" <<< OR >>> "Criterion Collection" <<< OR >>> "French" <<< OR
>>> "Eclipse Series 45" <<<
–––––––––––––––––––––––––––––––––––––––-
>>> Visit Blog RSU75 Here <<<
–––––––––––––––––––––––––––––––––––––––-