Tags
Language
Tags

BBC - Life Drawing Live: Drawing the Nation Together (2020)

Posted By: Tutorial
1080p (FullHD) / HDTV
BBC - Life Drawing Live: Drawing the Nation Together (2020)

BBC - Life Drawing Live: Drawing the Nation Together (2020)
HDTV | 1920 x 1080 | .MKV/AVC @ 3278 Kbps | 1 h 59 min | 3.05 GB
Audio: English AC-3 192 Kbps, 2 channels | Subs: None
Genre: Documentary

Josie d'Arby hosts a live broadcast of a life drawing class, allowing viewers to draw along with the students in the socially distanced studio. The models present a variety of poses inspired by classical works of art, while artists Lachlan Goudie, Diana Ali and Nicky Philipps are on hand to share their passion and knowledge.

General
ID : 1 (0x1)
Complete name : BBC.Life.Drawing.Live.Drawing.the.Nation.Together.ts
Format : MPEG-TS
File size : 3.05 GiB
Duration : 1 h 59 min
Overall bit rate mode : Variable
Overall bit rate : 3 652 kb/s

Video
ID : 5300 (0x14B4)
Menu ID : 1 (0x1)
Format : AVC
Format/Info : Advanced Video Codec
Format profile : High@L4
Format settings, CABAC : Yes
Format settings, ReFrames : 4 frames
Codec ID : 27
Duration : 1 h 59 min
Bit rate : 3 278 kb/s
Width : 1 920 pixels
Height : 1 080 pixels
Display aspect ratio : 16:9
Frame rate : 25.000 FPS
Standard : Component
Color space : YUV
Chroma subsampling : 4:2:0
Bit depth : 8 bits
Scan type : MBAFF
Scan type, store method : Separated fields
Scan order : Top Field First
Bits/(Pixel*Frame) : 0.063
Stream size : 2.74 GiB (90%)
Color range : Limited
Color primaries : BT.709
Transfer characteristics : BT.709
Matrix coefficients : BT.709

Audio
ID : 5301 (0x14B5)
Menu ID : 1 (0x1)
Format : AC-3
Format/Info : Audio Coding 3
Format settings, Endianness : Big
Codec ID : 6
Duration : 1 h 59 min
Bit rate mode : Constant
Bit rate : 192 kb/s
Channel(s) : 2 channels
Channel positions : Front: L R
Sampling rate : 48.0 kHz
Frame rate : 31.250 FPS (1536 spf)
Bit depth : 16 bits
Compression mode : Lossy
Stream size : 164 MiB (5%)
Language : English
Service kind : Complete Main

Other
ID : 5303 (0x14B7)-888
Menu ID : 1 (0x1)
Format : Teletext
Language : English
Screenshots

BBC - Life Drawing Live: Drawing the Nation Together (2020)

BBC - Life Drawing Live: Drawing the Nation Together (2020)

BBC - Life Drawing Live: Drawing the Nation Together (2020)

Welcome to my blog - daily update!

BBC - Life Drawing Live: Drawing the Nation Together (2020)