Life of a King (2013)

Posted By: NaVi7
Life of a King (2013)

Life of a King (2013)
BDRip 1080p | MKV / AVC, 8610 Kbps | 1920x1080 | 1h 41mn | 6.55 GB | English: AC3, 640 Kbps (6 ch)
Genre: Drama

After being incarcerated for eighteen years, Eugene Brown made an unexpected move. He established a Chess Club for inner-city high school students in Washington D.C. where, amidst dwindling educational resources, over-policing and a looming drug economy, it can be near impossible for youth to find their way to a whole and happy adulthood. Brown resolved to teach young people the fundamentals of chess but it was never just a game for them. For Brown and his students, chess became a matter of survival. Always think before you move.

imdb

General
Unique ID : 254489970190394574282065613514904313836 (0xBF74FC4410A456439318C332F13E1FEC)
Complete name : ams-lifeofaking-1080p.mkv
Format : Matroska
Format version : Version 4 / Version 2
File size : 6.55 GiB
Duration : 1h 41mn
Overall bit rate : 9 245 Kbps
Encoded date : UTC 2014-05-08 05:44:24
Writing application : mkvmerge v6.7.0 ('Back to the Ground') 64bit built on Jan 8 2014 15:10:52
Writing library : libebml v1.3.0 + libmatroska v1.4.1

Video
ID : 1
Format : AVC
Format/Info : Advanced Video Codec
Format profile : High@L4.0
Format settings, CABAC : Yes
Format settings, ReFrames : 4 frames
Codec ID : V_MPEG4/ISO/AVC
Duration : 1h 41mn
Bit rate : 8 610 Kbps
Width : 1 920 pixels
Height : 1 080 pixels
Display aspect ratio : 16:9
Frame rate mode : Constant
Frame rate : 23.976 fps
Color space : YUV
Chroma subsampling : 4:2:0
Bit depth : 8 bits
Scan type : Progressive
Bits/(Pixel*Frame) : 0.173
Stream size : 5.97 GiB (91%)
Writing library : x264 core 142 r2431 ac76440
Encoding settings : cabac=1 / ref=4 / deblock=1:0:0 / analyse=0x3:0x113 / me=umh / subme=8 / psy=1 / psy_rd=1.00:0.00 / mixed_ref=1 / me_range=16 / chroma_me=1 / trellis=1 / 8x8dct=1 / cqm=0 / deadzone=21,11 / fast_pskip=0 / chroma_qp_offset=-2 / threads=6 / lookahead_threads=1 / sliced_threads=0 / nr=0 / decimate=1 / interlaced=0 / bluray_compat=0 / constrained_intra=0 / bframes=3 / b_pyramid=2 / b_adapt=2 / b_bias=0 / direct=3 / weightb=1 / open_gop=0 / weightp=2 / keyint=250 / keyint_min=23 / scenecut=40 / intra_refresh=0 / rc_lookahead=50 / rc=2pass / mbtree=1 / bitrate=8610 / ratetol=1.0 / qcomp=0.60 / qpmin=0 / qpmax=69 / qpstep=4 / cplxblur=20.0 / qblur=0.5 / ip_ratio=1.40 / aq=1:1.00
Default : Yes
Forced : No

Audio
ID : 2
Format : AC-3
Format/Info : Audio Coding 3
Mode extension : CM (complete main)
Format settings, Endianness : Big
Codec ID : A_AC3
Duration : 1h 41mn
Bit rate mode : Constant
Bit rate : 640 Kbps
Channel count : 6 channels
Channel positions : Front: L C R, Side: L R, LFE
Sampling rate : 48.0 KHz
Bit depth : 16 bits
Compression mode : Lossy
Stream size : 464 MiB (7%)
Language : English
Default : Yes
Forced : No


screenshots:

Life of a King (2013)

Life of a King (2013)

Life of a King (2013)