Tags
Language
Tags
February 2023
Su Mo Tu We Th Fr Sa
29 30 31 1 2 3 4
5 6 7 8 9 10 11
12 13 14 15 16 17 18
19 20 21 22 23 24 25
26 27 28 1 2 3 4

Lock, Stock and Two Smoking Barrels (1998)

Posted By: Without
720p (HD) / BDRip IMDb
Lock, Stock and Two Smoking Barrels (1998)

Lock, Stock and Two Smoking Barrels (1998)
BDRip 720p | MKV | 1280x694 | AVC@5060 kb/s | English DTS@755 kb/s
6 channels | 1 h 47 min | 4.36 GB
Genre: Comedy, Crime

A botched card game in London triggers four friends, thugs, weed-growers, hard gangsters, loan sharks and debt collectors to collide with each other in a series of unexpected events, all for the sake of weed, cash and two antique shotguns.

IMDB - Top Rated Movies #143 | Nominated for 1 BAFTA Film Award. Another 13 wins & 7 nominations.


General
Lock,Stock.and.Two.Smoking.Barrels.1998.BluRay.720p.DTS.x264-CHD\Lock,Stock.and.Two.Smoking.Barrels.1998.BluRay.720p.DTS.x264-CHD.mkv
Format : Matroska
Format version : Version 2
File size : 4.36 GiB
Duration : 1 h 47 min
Overall bit rate : 5 816 kb/s
Encoded date : UTC 2009-11-16 05:48:10
Writing application : mkvmerge v2.9.7 ('Tenderness') built on Jul 1 2009 18:43:35
Writing library : libebml v0.7.7 + libmatroska v0.8.1

Video
ID : 1
Format : AVC
Format/Info : Advanced Video Codec
Format profile : High@L4.1
Format settings, CABAC : Yes
Format settings, ReFrames : 6 frames
Codec ID : V_MPEG4/ISO/AVC
Duration : 1 h 47 min
Bit rate : 5 060 kb/s
Width : 1 280 pixels
Height : 694 pixels
Display aspect ratio : 1.85:1
Frame rate mode : Constant
Frame rate : 23.976 FPS
Color space : YUV
Chroma subsampling : 4:2:0
Bit depth : 8 bits
Scan type : Progressive
Bits/(Pixel*Frame) : 0.238
Stream size : 3.71 GiB (85%)
Title : Lock,Stock.and.Two.Smoking.Barrels.1998.BluRay.720p.DTS.x264-CHD
Writing library : x264 core 78 r1301M bcba15d
Encoding settings : cabac=1 / ref=6 / deblock=1:-3:-3 / analyse=0x3:0x113 / me=umh / subme=9 / psy=1 / psy_rd=1.1:0.2 / mixed_ref=1 / me_range=32 / chroma_me=1 / trellis=1 / 8x8dct=1 / cqm=2 / deadzone=21,11 / chroma_qp_offset=-1 / threads=6 / nr=0 / decimate=1 / mbaff=0 / constrained_intra=0 / bframes=3 / b_pyramid=0 / b_adapt=1 / b_bias=0 / direct=3 / wpredb=1 / keyint=250 / keyint_min=25 / scenecut=40 / rc_lookahead=40 / rc=2pass / mbtree=1 / bitrate=5060 / ratetol=1.0 / qcomp=0.60 / qpmin=10 / qpmax=51 / qpstep=4 / cplxblur=20.0 / qblur=0.5 / ip_ratio=1.40 / aq=2:0.60
Language : English
Default : Yes
Forced : No

Audio
ID : 2
Format : DTS
Format/Info : Digital Theater Systems
Mode : 16
Format settings, Endianness : Big
Codec ID : A_DTS
Duration : 1 h 47 min
Bit rate mode : Constant
Bit rate : 755 kb/s
Channel(s) : 6 channels
Channel positions : Front: L C R, Side: L R, LFE
Sampling rate : 48.0 kHz
Frame rate : 93.750 FPS (512 spf)
Bit depth : 24 bits
Compression mode : Lossy
Stream size : 580 MiB (13%)
Title : DTS 5.1CH 768Kbps
Language : English
Default : Yes
Forced : Yes


BDRip 720p Screenshots

Lock, Stock and Two Smoking Barrels (1998)

Lock, Stock and Two Smoking Barrels (1998)

Lock, Stock and Two Smoking Barrels (1998)

Lock, Stock and Two Smoking Barrels (1998)

Lock, Stock and Two Smoking Barrels (1998)


Come Visit My Blog (•‿•)