Tags
Language
Tags

Loft (2008)

Posted By: Tavaz
720p (HD) / BDRip IMDb
Loft (2008)

Loft (2008)
BDRip | MKV | 1280x720 | Nederlands | H264 @ 2560 kbps | AC-3 @ 448 kbps | 1 h 57 min | 2.47 GiB
Subtitles: English
Genre: Drama, Mystery, Romance, Thriller

Five close friends, all of them married, share a loft to meet their mistresses. One day they find the body of a young woman in the loft. Since there are only five keys to the loft, the five men begin to suspect each other of murder.

19e0544af9c6b5232ff8b4c9debf0cdf.mkv (2.5 GB)



General
Unique ID : 288691617031425536866239583031524314952 (0xD92FFBA57542A70CCF1FE2F8707FCF48)
Complete name : ./19e0544af9c6b5232ff8b4c9debf0cdf.mkv
Format : Matroska
Format version : Version 4 / Version 2
File size : 2.47 GiB
Duration : 1 h 57 min
Overall bit rate : 3 009 kb/s
Movie name : Loft.2008.720p.BluRay.x264-x0r
Encoded date : UTC 2021-03-22 19:17:46
Writing application : mkvmerge v7.7.0 ('Six Voices') 64bit built on Mar 1 2015 01:50:05
Writing library : libebml v1.3.1 + libmatroska v1.4.2

Video
ID : 1
Format : AVC
Format/Info : Advanced Video Codec
Format profile : High@L4.1
Format settings : CABAC / 8 Ref Frames
Format settings, CABAC : Yes
Format settings, RefFrames : 8 frames
Codec ID : V_MPEG4/ISO/AVC
Duration : 1 h 57 min
Bit rate : 2 560 kb/s
Width : 1 280 pixels
Height : 720 pixels
Display aspect ratio : 16:9
Frame rate mode : Constant
Frame rate : 24.000 FPS
Color space : YUV
Chroma subsampling : 4:2:0
Bit depth : 8 bits
Scan type : Progressive
Bits/(Pixel*Frame) : 0.116
Stream size : 2.10 GiB (85%)
Writing library : x264 core 155 r2917 0a84d98
Encoding settings : cabac=1 / ref=8 / deblock=1:-2:-2 / analyse=0x3:0x133 / me=umh / subme=9 / psy=1 / psy_rd=1.00:0.25 / mixed_ref=1 / me_range=24 / chroma_me=1 / trellis=2 / 8x8dct=1 / cqm=0 / deadzone=21,11 / fast_pskip=1 / chroma_qp_offset=-4 / threads=22 / lookahead_threads=2 / sliced_threads=0 / nr=0 / decimate=1 / interlaced=0 / bluray_compat=0 / constrained_intra=0 / bframes=4 / b_pyramid=2 / b_adapt=2 / b_bias=0 / direct=3 / weightb=1 / open_gop=0 / weightp=2 / keyint=240 / keyint_min=24 / scenecut=40 / intra_refresh=0 / rc_lookahead=120 / rc=2pass / mbtree=1 / bitrate=2560 / ratetol=1.0 / qcomp=0.60 / qpmin=0 / qpmax=69 / qpstep=4 / cplxblur=20.0 / qblur=0.5 / vbv_maxrate=20000 / vbv_bufsize=25000 / nal_hrd=none / filler=0 / ip_ratio=1.40 / aq=1:1.00
Language : Dutch
Default : Yes
Forced : No
Color range : Limited
Color primaries : BT.709
Transfer characteristics : BT.709
Matrix coefficients : BT.709

Audio
ID : 2
Format : AC-3
Format/Info : Audio Coding 3
Format settings, Endianness : Big
Codec ID : A_AC3
Duration : 1 h 57 min
Bit rate mode : Constant
Bit rate : 448 kb/s
Channel(s) : 6 channels
Channel positions : Front: L C R, Side: L R, LFE
Sampling rate : 48.0 kHz
Frame rate : 31.250 FPS (1536 SPF)
Bit depth : 16 bits
Compression mode : Lossy
Delay relative to video : -5 ms
Stream size : 377 MiB (15%)
Title : Surround
Language : Dutch
Service kind : Complete Main
Default : Yes
Forced : No

Text
ID : 3
Format : UTF-8
Codec ID : S_TEXT/UTF8
Codec ID/Info : UTF-8 Plain Text
Duration : 1 h 51 min
Bit rate : 66 b/s
Count of elements : 1198
Stream size : 54.2 KiB (0%)
Language : English
Default : Yes
Forced : No

Menu
00:00:00.000 : :Chapter 1
00:05:20.667 : :Chapter 2
00:11:38.625 : :Chapter 3
00:20:52.042 : :Chapter 4
00:27:06.708 : :Chapter 5
00:31:42.458 : :Chapter 6
00:40:06.625 : :Chapter 7
00:46:36.750 : :Chapter 8
00:51:56.292 : :Chapter 9
01:00:15.875 : :Chapter 10
01:06:05.542 : :Chapter 11
01:12:31.417 : :Chapter 12
01:17:54.375 : :Chapter 13
01:27:49.125 : :Chapter 14
01:32:44.167 : :Chapter 15
01:38:28.583 : :Chapter 16
01:47:06.500 : :Chapter 17
01:53:36.583 : :Chapter 18





Loft (2008)


Loft (2008)


Loft (2008)


Loft (2008)


Loft (2008)