Long Night's Journey Into Day (2000)

Posted By: Polik88
Long Night's Journey Into Day (2000)

Long Night's Journey Into Day (2000)
DVDRip | English | AVI/XVID 29.970 fps 1521 Kbps | 640x480 | MP3 128 Kbps 48.0 khz | 1h 34mn | 1.09 GB
Genre: Documentary

This documentary examines the workings of the South African Truth and Reconciliation Commission (TRC), established after the end of apartheid for wrongdoers to confess their transgressions to the families of their victims. It follows several cases that the group has monitored, including those of a white police officer who meets the families of the Craddock Four, black activists who died at his hands, and the parents of a white American exchange student who encounter the black man who killed their daughter. Long Night's Journey Into Day was directed by Frances Reid, who earned an Oscar nomination for her short subject Straight From the Heart, and Deborah Hoffman, an Oscar nominee for Complaints of a Dutiful Daughter.
General
Complete name : Long Night's Journey Into Day (2000).avi
Format : AVI
Format/Info : Audio Video Interleave
File size : 1.09 GiB
Duration : 1h 34mn
Overall bit rate : 1 658 Kbps
Writing application : VirtualDubMod 1.5.4.1 (build 2178/release)
Writing library : VirtualDubMod build 2178/release

Video
ID : 0
Format : MPEG-4 Visual
Format profile : Advanced Simple@L5
Format settings, BVOP : 1
Format settings, QPel : No
Format settings, GMC : No warppoints
Format settings, Matrix : Custom
Codec ID : XVID
Codec ID/Hint : XviD
Duration : 1h 34mn
Bit rate : 1 521 Kbps
Width : 640 pixels
Height : 480 pixels
Display aspect ratio : 4:3
Frame rate : 29.970 fps
Color space : YUV
Chroma subsampling : 4:2:0
Bit depth : 8 bits
Scan type : Progressive
Compression mode : Lossy
Bits/(Pixel*Frame) : 0.165
Stream size : 1.00 GiB (92%)
Writing library : XviD 1.2.1 (UTC 2008-12-04)

Audio
ID : 1
Format : MPEG Audio
Format version : Version 1
Format profile : Layer 3
Mode : Joint stereo
Mode extension : MS Stereo
Codec ID : 55
Codec ID/Hint : MP3
Duration : 1h 34mn
Bit rate mode : Constant
Bit rate : 128 Kbps
Channel(s) : 2 channels
Sampling rate : 48.0 KHz
Compression mode : Lossy
Stream size : 86.5 MiB (8%)
Alignment : Aligned on interleaves
Interleave, duration : 67 ms (2.00 video frames)
Interleave, preload duration : 504 ms
Writing library : LAME3.98r
Encoding settings : -m j -V 4 -q 2 -lowpass 17 -b 128

Screenshots

Long Night's Journey Into Day (2000)

Long Night's Journey Into Day (2000)

Long Night's Journey Into Day (2000)

no mirrors please, Follow The Rules
Visit Polik88 Blog Here
no password