Longmire S06E01

Posted By: Tavaz
720p (HD) / WEBRip IMDb
Longmire S06E01

Longmire S06E01
WEBRip | MKV | 1280x720 | French | H264 @ 3320 kbps | AC-3 @ 384 kbps | 1 h 0 min | 1.53 GiB
Subtitles: French (Forced), French, English
Genre: Action, Crime, Drama

Walt Longmire, le charismatique et dévoué shérif du comté d'Absaroka dans le Wyoming, est veuf depuis une année. Accablé par le chagrin, il a laissé son équipe se débrouiller sans lui durant plusieurs mois. Avec l’aide de sa nouvelle adjointe, Vic, il trouve la force d’aller de l’avant, reprenant goût à son travail et reconstruisant sa vie, pas à pas. Il est même prêt à se représenter pour un nouveau mandat face à Branch Connally , un jeune adjoint très ambitieux mais sans grande expérience. Heureusement, Longmire peut compter sur le soutien indéfectible de son vieil ami, un indien répondant au nom d’Henry.

Based on the Walt Longmire mystery novels by best-selling author Craig Johnson, this contemporary crime drama stars Australian actor Robert Taylor in the title role, the charismatic and dedicated sheriff of Absaroka County, Wyo.


General
Unique ID : 211849814007021000146796473222053685089 (0x9F60CA40C6949CFEA43FACFC75A6E761)
Complete name : ./longmire.s06e01.french.720p.web.x264-cielos.mkv
Format : Matroska
Format version : Version 4 / Version 2
File size : 1.53 GiB
Duration : 1 h 0 min
Overall bit rate mode : Variable
Overall bit rate : 3 655 kb/s
Encoded date : UTC 2017-11-17 17:04:35
Writing application : mkvmerge v17.0.0 ('Be Ur Friend') 64-bit
Writing library : libebml v1.3.5 + libmatroska v1.4.8

Video
ID : 1
Format : AVC
Format/Info : Advanced Video Codec
Format profile : Main@L3.1
Format settings : CABAC / 3 Ref Frames
Format settings, CABAC : Yes
Format settings, RefFrames : 3 frames
Codec ID : V_MPEG4/ISO/AVC
Duration : 59 min 59 s
Bit rate mode : Variable
Bit rate : 3 320 kb/s
Maximum bit rate : 4 980 kb/s
Width : 1 280 pixels
Height : 720 pixels
Display aspect ratio : 16:9
Frame rate mode : Constant
Frame rate : 23.976 (24000/1001) FPS
Color space : YUV
Chroma subsampling : 4:2:0
Bit depth : 8 bits
Scan type : Progressive
Bits/(Pixel*Frame) : 0.150
Stream size : 1.37 GiB (89%)
Writing library : x264 core 148
Encoding settings : cabac=1 / ref=3 / deblock=1:0:0 / analyse=0x1:0x111 / me=umh / subme=10 / psy=1 / psy_rd=1.00:0.00 / mixed_ref=1 / me_range=24 / chroma_me=1 / trellis=2 / 8x8dct=0 / cqm=0 / deadzone=21,11 / fast_pskip=1 / chroma_qp_offset=-2 / threads=8 / lookahead_threads=1 / sliced_threads=0 / nr=0 / decimate=1 / interlaced=0 / bluray_compat=0 / stitchable=1 / constrained_intra=0 / bframes=2 / b_pyramid=0 / b_adapt=2 / b_bias=0 / direct=3 / weightb=1 / open_gop=0 / weightp=2 / keyint=48 / keyint_min=25 / scenecut=0 / intra_refresh=0 / rc_lookahead=48 / rc=2pass / mbtree=1 / bitrate=3320 / ratetol=1.0 / qcomp=0.50 / qpmin=6 / qpmax=51 / qpstep=4 / cplxblur=20.0 / qblur=0.5 / vbv_maxrate=4980 / vbv_bufsize=6640 / nal_hrd=vbr / filler=0 / ip_ratio=1.40 / aq=1:1.00
Default : Yes
Forced : No

Audio
ID : 2
Format : AC-3
Format/Info : Audio Coding 3
Format settings, Endianness : Big
Codec ID : A_AC3
Duration : 1 h 0 min
Bit rate mode : Constant
Bit rate : 384 kb/s
Channel(s) : 6 channels
Channel positions : Front: L C R, Side: L R, LFE
Sampling rate : 48.0 kHz
Frame rate : 31.250 FPS (1536 SPF)
Bit depth : 16 bits
Compression mode : Lossy
Stream size : 165 MiB (11%)
Title : French
Language : French
Service kind : Complete Main
Default : Yes
Forced : No

Text #1
ID : 3
Format : UTF-8
Codec ID : S_TEXT/UTF8
Codec ID/Info : UTF-8 Plain Text
Duration : 58 min 39 s
Bit rate : 0 b/s
Count of elements : 7
Stream size : 179 Bytes (0%)
Title : French (Forced)
Language : French
Default : Yes
Forced : Yes

Text #2
ID : 4
Format : UTF-8
Codec ID : S_TEXT/UTF8
Codec ID/Info : UTF-8 Plain Text
Duration : 58 min 39 s
Bit rate : 58 b/s
Count of elements : 808
Stream size : 25.1 KiB (0%)
Title : French
Language : French
Default : No
Forced : No

Text #3
ID : 5
Format : UTF-8
Codec ID : S_TEXT/UTF8
Codec ID/Info : UTF-8 Plain Text
Duration : 58 min 0 s
Bit rate : 73 b/s
Count of elements : 1096
Stream size : 31.3 KiB (0%)
Title : English
Language : English
Default : No
Forced : No





Longmire S06E01


Longmire S06E01


Longmire S06E01


Longmire S06E01


Longmire S06E01

All episodes