Looking for Ms. Locklear (2008)

Posted By: vivid23
Looking for Ms. Locklear (2008)

Looking for Ms. Locklear (2008)
DVDrip | 720x416 | AVI/XviD @ 1607 Kbps | 56mn | Audio: English MP3 128 kbps, 2 channels | Subs: None | 700 MB
Genre: Documentary

Using only word of mouth, two lifelong best friends and Internet comedians, Rhett & Link, embark on a search for the long-lost teacher of the first grade class where they met. Their journey leads them deep into the heart of an obscure tribe of Native Americans, the Lumbee of North Carolina. Serendipitously, Rhett & Link arrive on the scene at the very climax of the tribe's century-long political struggle for identity. In a day of mobile devices that allow for a multitude of superficial connections with other 'users,' the unforgettable characters in Looking for Ms. Locklear serve as a reminder that people have more to say than an email or text message can communicate.

More info

Video
ID : 0
Format : MPEG-4 Visual
Format profile : Advanced Simple@L5
Format settings, BVOP : Yes
Format settings, QPel : No
Format settings, GMC : No warppoints
Format settings, Matrix : Custom
Codec ID : XVID
Codec ID/Hint : XviD
Duration : 56mn 49s
Bit rate : 1 607 Kbps
Width : 720 pixels
Height : 416 pixels
Display aspect ratio : 16:9
Frame rate : 23.976 fps
Color space : YUV
Chroma subsampling : 4:2:0
Bit depth : 8 bits
Scan type : Progressive
Compression mode : Lossy
Bits/(Pixel*Frame) : 0.224
Stream size : 653 MiB (93%)
Writing library : XviD 1.2.1 (UTC 2008-12-04)

Audio
ID : 1
Format : MPEG Audio
Format version : Version 1
Format profile : Layer 3
Mode : Joint stereo
Mode extension : MS Stereo
Codec ID : 55
Codec ID/Hint : MP3
Duration : 56mn 49s
Bit rate mode : Variable
Bit rate : 103 Kbps
Nominal bit rate : 128 Kbps
Channel(s) : 2 channels
Sampling rate : 48.0 KHz
Compression mode : Lossy
Stream size : 41.8 MiB (6%)
Alignment : Aligned on interleaves
Interleave, duration : 24 ms (0.58 video frame)
Interleave, preload duration : 179 ms
Writing library : LAME3.98r
Encoding settings : -m j -V 4 -q 2 -lowpass 17 –abr 128


Looking for Ms. Locklear (2008)

Looking for Ms. Locklear (2008)


Feel free to contact me when links are dead