Tags
Language
Tags
November 2022
Su Mo Tu We Th Fr Sa
30 31 1 2 3 4 5
6 7 8 9 10 11 12
13 14 15 16 17 18 19
20 21 22 23 24 25 26
27 28 29 30 1 2 3

Love And Marriage: A 20th Century Romance (2012)

Posted By: notbanned
SD / DVDRip
Love And Marriage: A 20th Century Romance (2012)

Love And Marriage: A 20th Century Romance (2012)
PDTV | 960x540 | .MKV/AVC @ 2223 Kbps | 3x~51min | 2.37 GiB
Audio: English MP2 192 kbps, 2 channels | Subs: English
Genre: Documentary

This beautiful series following the ups and downs of marriage in Britain from the 1900s to the present day – from the Victorian marriage ideal to the challenges of the 60s and the survival of the institution into the modern era. Featuring the deeply moving personal stories of couples, and their children, from all walks of life through the decades of the turbulant 20th Century, Love and Marriage tells a love story like no other.

Despite the tragedy of the First and Second World Wars, most marriages not only survived - some became even stronger. Couples recall how their parents remained passionately in love, despite losing everything in the economic crash of the 1930, how in the 1960s and 70s the traditional ideals of marriage were questioned and challenged as never before by rebellious youth, feminism and a more permissive society. As the later decades of the 20th century approach, interviews with rockstars and feminists reveal the effects of the sexual revolution, the empowerment of women and the growth of a global consumer society based on individual choice.

Love and Marriage is the story of an institution which continues to shape us all. From the Victorian values of the 1900s, through the free-love communes and Page 3 girls of the swinging 60s through to the 80s and 90s with Princess Diana style weddings and Christian dating agencies. This is an unforgettable and heartbreaking romance which will remind you not only why we fall for each other, but why when we do, for better or worse, we still won't settle for anything less than an enduring committment to have and to hold, to endure and adore one another.

General
Unique ID : 323154157790726603078615665627476662464 (0xF31D3A170D36FDF1916488287B8218C0)
Complete name : Love.And.Marriage.A.20th.Century.Romance.Part.1.HR.PDTV..mkv
Format : Matroska
Format version : Version 4 / Version 2
File size : 898 MiB
Duration : 51 min 55 s
Overall bit rate : 2 418 kb/s

Video
ID : 1
Format : AVC
Format/Info : Advanced Video Codec
Format profile : High@L4.1
Format settings, CABAC : Yes
Format settings, ReFrames : 5 frames
Codec ID : V_MPEG4/ISO/AVC
Duration : 51 min 55 s
Bit rate : 2 223 kb/s
Width : 960 pixels
Height : 540 pixels
Display aspect ratio : 16:9
Frame rate mode : Constant
Frame rate : 50.000 FPS
Color space : YUV
Chroma subsampling : 4:2:0
Bit depth : 8 bits
Scan type : Progressive
Bits/(Pixel*Frame) : 0.086
Stream size : 826 MiB (92%)
Writing library : x264 core 157 r2969 d4099dd
Encoding settings : cabac=1 / ref=5 / deblock=1:-1:-1 / analyse=0x3:0x113 / me=hex / subme=8 / psy=1 / psy_rd=1.00:0.00 / mixed_ref=1 / me_range=16 / chroma_me=1 / trellis=2 / 8x8dct=1 / cqm=0 / deadzone=21,11 / fast_pskip=1 / chroma_qp_offset=-2 / threads=12 / lookahead_threads=2 / sliced_threads=0 / nr=0 / decimate=1 / interlaced=0 / bluray_compat=0 / constrained_intra=0 / bframes=3 / b_pyramid=2 / b_adapt=1 / b_bias=0 / direct=3 / weightb=1 / open_gop=0 / weightp=2 / keyint=250 / keyint_min=25 / scenecut=40 / intra_refresh=0 / rc_lookahead=50 / rc=crf / mbtree=1 / crf=21.0 / qcomp=0.60 / qpmin=0 / qpmax=69 / qpstep=4 / ip_ratio=1.40 / aq=1:1.00
Language : English
Default : Yes
Forced : No

Audio
ID : 2
Format : MPEG Audio
Format version : Version 1
Format profile : Layer 2
Codec ID : A_MPEG/L2
Codec ID/Hint : MP2
Duration : 51 min 55 s
Bit rate mode : Constant
Bit rate : 192 kb/s
Channel(s) : 2 channels
Sampling rate : 48.0 kHz
Frame rate : 41.667 FPS (1152 spf)
Compression mode : Lossy
Delay relative to video : 14 ms
Stream size : 71.3 MiB (8%)
Language : English
Default : Yes
Forced : No

Text
ID : 3
Format : UTF-8
Codec ID : S_TEXT/UTF8
Codec ID/Info : UTF-8 Plain Text
Duration : 51 min 49 s
Bit rate : 95 b/s
Count of elements : 881
Stream size : 36.2 KiB (0%)
Language : English
Default : No
Forced : No


Screenshots:

Love And Marriage: A 20th Century Romance (2012)

Love And Marriage: A 20th Century Romance (2012)

Love And Marriage: A 20th Century Romance (2012)

Love And Marriage: A 20th Century Romance (2012)