Tags
Language
Tags

Lupin the Third: The Legend of the Gold of Babylon (1985)

Posted By: Tavaz
1080p (FullHD) / BDRip IMDb
Lupin the Third: The Legend of the Gold of Babylon (1985)

Lupin the Third: The Legend of the Gold of Babylon (1985)
BDRip | MKV | 1920x1036 | 日本語 / English | H264 @ 11000 kbps | AC-3 @ 448 kbps | 1 h 42 min | 8.45 GiB
Subtitles: English
Genre: Action, Adventure, Animation, Comedy, Crime

In New York City, several stone tablets have been unearthed that tell a tale about the Gold of Babylon. Two Mafia families are after it as well as Lupin the 3rd himself. An old drunken woman named Rosetta appears to know much about this treasure than meets the eye. While Zenigata has made a group of female partners that will lure Lupin the 3rd into handcuffs, the race is on for the gold of Babel.

Lupin.III.The.Legend.of.the.Gold.of.Babylon.1985.1080p.BluRay.DD.5.1.x264-WMD.part1.rar (4.4 GB)
Lupin.III.The.Legend.of.the.Gold.of.Babylon.1985.1080p.BluRay.DD.5.1.x264-WMD.part2.rar (4.1 GB)



General
Complete name : ./b58b016aa8577f4135757e81a4ba85cf.mkv
Format : Matroska
Format version : Version 4 / Version 2
File size : 8.45 GiB
Duration : 1 h 42 min
Overall bit rate mode : Variable
Overall bit rate : 11.9 Mb/s
Encoded date : UTC 2020-10-01 02:56:23
Writing application : mkvmerge v50.0.0 ('Awakenings') 64-bit
Writing library : libebml v1.4.0 + libmatroska v1.6.2

Video
ID : 1
Format : AVC
Format/Info : Advanced Video Codec
Format profile : High@L4.1
Format settings : CABAC / 4 Ref Frames
Format settings, CABAC : Yes
Format settings, RefFrames : 4 frames
Codec ID : V_MPEG4/ISO/AVC
Duration : 1 h 42 min
Bit rate : 11.0 Mb/s
Width : 1 920 pixels
Height : 1 036 pixels
Display aspect ratio : 1.85:1
Frame rate mode : Constant
Frame rate : 23.976 (24000/1001) FPS
Color space : YUV
Chroma subsampling : 4:2:0
Bit depth : 8 bits
Scan type : Progressive
Bits/(Pixel*Frame) : 0.231
Stream size : 7.83 GiB (93%)
Title : Lupin.III.The.Legend.of.the.Gold.of.Babylon.1985.1080p.BluRay.DD.5.1.x264-WMD
Writing library : x264 core 160 r3009 4c9b076
Encoding settings : cabac=1 / ref=4 / deblock=1:-3:-3 / analyse=0x3:0x113 / me=umh / subme=10 / psy=1 / psy_rd=1.00:0.00 / mixed_ref=1 / me_range=32 / chroma_me=1 / trellis=2 / 8x8dct=1 / cqm=0 / deadzone=21,11 / fast_pskip=0 / chroma_qp_offset=-2 / threads=12 / lookahead_threads=1 / sliced_threads=0 / nr=0 / decimate=0 / interlaced=0 / bluray_compat=0 / constrained_intra=0 / bframes=15 / b_pyramid=2 / b_adapt=1 / b_bias=0 / direct=1 / weightb=1 / open_gop=0 / weightp=1 / keyint=250 / keyint_min=23 / scenecut=40 / intra_refresh=0 / rc=2pass / mbtree=0 / bitrate=11000 / ratetol=1.0 / qcomp=0.65 / qpmin=0 / qpmax=69 / qpstep=4 / cplxblur=20.0 / qblur=0.5 / ip_ratio=1.40 / pb_ratio=1.30 / aq=2:1.00
Language : Japanese
Default : Yes
Forced : No

Audio #1
ID : 2
Format : AC-3
Format/Info : Audio Coding 3
Format settings, Endianness : Big
Codec ID : A_AC3
Duration : 1 h 42 min
Bit rate mode : Constant
Bit rate : 448 kb/s
Channel(s) : 6 channels
Channel positions : Front: L C R, Side: L R, LFE
Sampling rate : 48.0 kHz
Frame rate : 31.250 FPS (1536 SPF)
Bit depth : 16 bits
Compression mode : Lossy
Stream size : 327 MiB (4%)
Title : Surround
Language : Japanese
Service kind : Complete Main
Default : Yes
Forced : No

Audio #2
ID : 3
Format : FLAC
Format/Info : Free Lossless Audio Codec
Codec ID : A_FLAC
Duration : 1 h 42 min
Bit rate mode : Variable
Bit rate : 414 kb/s
Channel(s) : 2 channels
Channel positions : Front: L R
Sampling rate : 48.0 kHz
Frame rate : 11.719 FPS (4096 SPF)
Bit depth : 16 bits
Stream size : 302 MiB (3%)
Title : Stereo
Writing library : libFLAC 1.2.1 (UTC 2007-09-17)
Language : English
Default : No
Forced : No

Text
ID : 4
Format : PGS
Muxing mode : zlib
Codec ID : S_HDMV/PGS
Codec ID/Info : Picture based subtitle format used on BDs/HD-DVDs
Duration : 1 h 39 min
Bit rate : 27.3 kb/s
Count of elements : 1551
Stream size : 19.5 MiB (0%)
Language : English
Default : Yes
Forced : No

Menu
00:00:00.000 : en:Chapter 01
00:02:52.923 : en:Chapter 02
00:07:55.892 : en:Chapter 03
00:14:40.880 : en:Chapter 04
00:22:22.049 : en:Chapter 05
00:30:15.522 : en:Chapter 06
00:34:22.352 : en:Chapter 07
00:40:07.071 : en:Chapter 08
00:44:09.897 : en:Chapter 09
00:47:03.404 : en:Chapter 10
00:52:51.502 : en:Chapter 11
00:55:43.340 : en:Chapter 12
01:02:53.520 : en:Chapter 13
01:06:15.471 : en:Chapter 14
01:07:44.602 : en:Chapter 15
01:13:11.220 : en:Chapter 16
01:15:19.890 : en:Chapter 17
01:18:04.513 : en:Chapter 18
01:22:23.814 : en:Chapter 19
01:23:47.397 : en:Chapter 20
01:26:13.668 : en:Chapter 21
01:30:56.368 : en:Chapter 22
01:35:14.083 : en:Chapter 23
01:38:12.887 : en:Chapter 24
01:39:57.575 : en:Chapter 25





Lupin the Third: The Legend of the Gold of Babylon (1985)


Lupin the Third: The Legend of the Gold of Babylon (1985)


Lupin the Third: The Legend of the Gold of Babylon (1985)


Lupin the Third: The Legend of the Gold of Babylon (1985)


Lupin the Third: The Legend of the Gold of Babylon (1985)