Tags
Language
Tags

Lupin the Third: Missed by a Dollar (2000)

Posted By: Tavaz
1080p (FullHD) / BDRip IMDb
Lupin the Third: Missed by a Dollar (2000)

Lupin the Third: Missed by a Dollar (2000)
BDRip | MKV | 1920x1080 | English | H264 @ 5760 kbps | AC-3 @ 192 kbps | 1 h 31 min | 3.81 GiB
Subtitles: English
Genre: Action, Adventure, Animation, TV Movie

In New York City, an auction is being held, where numerous valuables are being bidded. One of the items was an ordinary ring which is more valuable than it looks. Lupin tries to bid on it, but was out bid by a dollar. So he steals it instead and makes a getaway. but only to find himself greeted by a group of mercenaries who are working for the person who out bid Lupin. Lupin gave them the ring as he was told, and got away from their firing guns. Lupin decides to gather up his friends to check out who outbid him at the auction. The one who outbid Lupin, is Cynthia, head of "Bank of the World" one of the largest and recently new banks. She has plans of her own on the ring, as it has the secrets of the location of a broach, that's said to give those who hold it, world domination.

4def35794a8788b5ec0b4b38546cf23b.mkv (3.8 GB)



General
Unique ID : 12531247722339224134427047186456332590 (0x96D6E36BFAA4AD30254BE47F867492E)
Complete name : ./4def35794a8788b5ec0b4b38546cf23b.mkv
Format : Matroska
Format version : Version 4 / Version 2
File size : 3.81 GiB
Duration : 1 h 31 min
Overall bit rate : 5 953 kb/s
Movie name : Lupin.the.Third.Missed.by.a.Dollar.2000.1080p.BluRay.x264-nikt0
Encoded date : UTC 2021-01-08 02:17:26 / UTC 2021-01-06T23:57:06Z
Writing application : mkvmerge v47.0.0 ('Black Flag') 64-bit
Writing library : libebml v1.3.10 + libmatroska v1.5.2 / Lavf57.7.2

Video
ID : 1
Format : AVC
Format/Info : Advanced Video Codec
Format profile : High@L4
Format settings : CABAC / 4 Ref Frames
Format settings, CABAC : Yes
Format settings, RefFrames : 4 frames
Codec ID : V_MPEG4/ISO/AVC
Duration : 1 h 31 min
Bit rate : 5 760 kb/s
Width : 1 920 pixels
Height : 1 080 pixels
Display aspect ratio : 16:9
Frame rate mode : Constant
Frame rate : 23.976 (24000/1001) FPS
Color space : YUV
Chroma subsampling : 4:2:0
Bit depth : 8 bits
Scan type : Progressive
Bits/(Pixel*Frame) : 0.116
Stream size : 3.61 GiB (95%)
Writing library : x264 core 155 r2901 7d0ff22
Encoding settings : cabac=1 / ref=4 / deblock=1:-3:-3 / analyse=0x3:0x133 / me=umh / subme=9 / psy=1 / psy_rd=1.10:0.25 / mixed_ref=1 / me_range=32 / chroma_me=1 / trellis=2 / 8x8dct=1 / cqm=0 / deadzone=6,6 / fast_pskip=1 / chroma_qp_offset=-4 / threads=34 / lookahead_threads=3 / sliced_threads=0 / nr=0 / decimate=1 / interlaced=0 / bluray_compat=0 / constrained_intra=0 / bframes=6 / b_pyramid=2 / b_adapt=2 / b_bias=0 / direct=3 / weightb=1 / open_gop=0 / weightp=2 / keyint=240 / keyint_min=24 / scenecut=40 / intra_refresh=0 / rc_lookahead=40 / rc=2pass / mbtree=1 / bitrate=5760 / ratetol=1.0 / qcomp=0.60 / qpmin=0 / qpmax=69 / qpstep=4 / cplxblur=20.0 / qblur=0.5 / vbv_maxrate=20000 / vbv_bufsize=25000 / nal_hrd=none / filler=0 / ip_ratio=1.40 / aq=1:1.00
Language : English
Default : Yes
Forced : No
Color range : Limited
Color primaries : BT.709
Transfer characteristics : BT.709
Matrix coefficients : BT.709
Statistics Tags Issue : mkvmerge v47.0.0 ('Black Flag') 64-bit 2021-01-08 02:17:26 / mkvmerge v47.0.0 ('Black Flag') 64-bit 2021-01-08 02:17:26 / UTC 2021-01-06T23:57:06Z
FromStats_BitRate : 5760027
FromStats_Duration : 01:31:37.492000000
FromStats_FrameCount : 131808
FromStats_StreamSize : 3958213164

Audio
ID : 2
Format : AC-3
Format/Info : Audio Coding 3
Format settings, Endianness : Big
Codec ID : A_AC3
Duration : 1 h 31 min
Bit rate mode : Constant
Bit rate : 192 kb/s
Channel(s) : 2 channels
Channel positions : Front: L R
Sampling rate : 48.0 kHz
Frame rate : 31.250 FPS (1536 SPF)
Bit depth : 16 bits
Compression mode : Lossy
Stream size : 126 MiB (3%)
Title : Stereo
Language : English
Service kind : Complete Main
Default : Yes
Forced : No
Statistics Tags Issue : mkvmerge v47.0.0 ('Black Flag') 64-bit 2021-01-08 02:17:26 / mkvmerge v47.0.0 ('Black Flag') 64-bit 2021-01-08 02:17:26 / UTC 2021-01-06T23:57:06Z
FromStats_BitRate : 192000
FromStats_Duration : 01:31:38.272000000
FromStats_FrameCount : 171821
FromStats_StreamSize : 131958528

Text
ID : 3
Format : UTF-8
Codec ID : S_TEXT/UTF8
Codec ID/Info : UTF-8 Plain Text
Language : English
Default : Yes
Forced : No
Statistics Tags Issue : mkvmerge v47.0.0 ('Black Flag') 64-bit 2021-01-08 02:17:26 / mkvmerge v47.0.0 ('Black Flag') 64-bit 2021-01-08 02:17:26 / UTC 2021-01-06T23:57:06Z
FromStats_BitRate : 16
FromStats_Duration : 01:30:48.949000000
FromStats_FrameCount : 347
FromStats_StreamSize : 11212

Menu
00:00:00.000 : :Chapter 1
00:05:57.649 : :Chapter 2
00:09:13.720 : :Chapter 3
00:17:58.077 : :Chapter 4
00:35:39.137 : :Chapter 5
00:48:45.923 : :Chapter 6
00:58:56.533 : :Chapter 7
01:14:02.438 : :Chapter 8
01:24:31.567 : :Chapter 9
01:28:48.198 : :Chapter 10





Lupin the Third: Missed by a Dollar (2000)


Lupin the Third: Missed by a Dollar (2000)


Lupin the Third: Missed by a Dollar (2000)


Lupin the Third: Missed by a Dollar (2000)


Lupin the Third: Missed by a Dollar (2000)