MLK - The Assassination Tapes (2012)

Posted By: Polik88
MLK - The Assassination Tapes (2012)

MLK - The Assassination Tapes (2012)
DVDRip | English | AVI/DIVX 29.970 fps 1797 Kbps | 720x540 | AC3 320 Kbps 48.0 khz | 46mn 10s | 701 MB
Genre: Documentary

April 4, 1968. Rev. Dr. Martin Luther King Jr. is gunned down on the balcony of a hotel in Memphis, Tennessee. It was all caught on film, tape and audio. So why have we seen so little of it? The well-known photograph of Dr. King’s aides pointing toward the direction of the gunfire is iconic, but tells only part of the story. For the first time, a remarkable collection of recently rediscovered footage has been chronologically reassembled. The resulting documentary allows us to revisit the tumultuous events surrounding one of the most shocking assassinations in America and relive history through the voices of the era.
General
Complete name :MLK - The Assassination Tapes 2012.avi
Format : AVI
Format/Info : Audio Video Interleave
File size : 701 MiB
Duration : 46mn 10s
Overall bit rate : 2 123 Kbps
Writing application : MEncoder version Beta 4.4.5 building on 20110111

Video
ID : 0
Format : MPEG-4 Visual
Format profile : Simple@L1
Format settings, BVOP : No
Format settings, QPel : No
Format settings, GMC : No warppoints
Format settings, Matrix : Default (H.263)
Codec ID : DX50
Codec ID/Hint : DivX 5
Duration : 46mn 10s
Bit rate : 1 797 Kbps
Width : 720 pixels
Height : 540 pixels
Display aspect ratio : 4:3
Frame rate : 29.970 fps
Color space : YUV
Chroma subsampling : 4:2:0
Bit depth : 8 bits
Scan type : Progressive
Compression mode : Lossy
Bits/(Pixel*Frame) : 0.154
Stream size : 593 MiB (85%)
Writing library : DigiArty AV Encoder Core

Audio
ID : 1
Format : AC-3
Format/Info : Audio Coding 3
Mode extension : CM (complete main)
Format settings, Endianness : Big
Codec ID : 2000
Duration : 46mn 10s
Bit rate mode : Constant
Bit rate : 320 Kbps
Channel(s) : 6 channels
Channel positions : Front: L C R, Side: L R, LFE
Sampling rate : 48.0 KHz
Bit depth : 16 bits
Compression mode : Lossy
Stream size : 106 MiB (15%)
Alignment : Split accross interleaves
Interleave, duration : 500 ms (14.99 video frames)
Interleave, preload duration : 500 ms

Screenshots

MLK - The Assassination Tapes (2012)

MLK - The Assassination Tapes (2012)

MLK - The Assassination Tapes (2012)

no mirrors please, Follow The Rules
Visit Polik88 Blog Here
no password