Mad Max: Fury Road (2015)

Posted By: Tavaz
1080p (FullHD) / BDRip IMDb
Mad Max: Fury Road (2015)

Mad Max: Fury Road (2015)
BDRip | MOV | 1920x1090 | English / English / French / Spanish / Portuguese | H264 @ 5712 kbps | MPEG Audio @ 128 kbps | 2 h 0 min | 5.36 GiB
Genre: Action, Adventure, Sci-Fi

An apocalyptic story set in the furthest reaches of our planet, in a stark desert landscape where humanity is broken, and most everyone is crazed fighting for the necessities of life. Within this world exist two rebels on the run who just might be able to restore order. There's Max, a man of action and a man of few words, who seeks peace of mind following the loss of his wife and child in the aftermath of the chaos. And Furiosa, a woman of action and a woman who believes her path to survival may be achieved if she can make it across the desert back to her childhood homeland.

0c28581e2e4c46ceaa65aafd6da360d5.mp4 (5.4 GB)



General
Complete name : ./0c28581e2e4c46ceaa65aafd6da360d5.mp4
Format : MPEG-4
Format profile : Base Media
Codec ID : isom (mp41/avc1)
File size : 5.36 GiB
Duration : 2 h 0 min
Overall bit rate : 6 375 kb/s
Encoded date : UTC 2018-02-04 13:12:50
Tagged date : UTC 2018-02-04 13:12:50
Writing application : vlc 2.2.6 stream output

Video
ID : 6
Format : AVC
Format/Info : Advanced Video Codec
Format profile : High@L4
Format settings : CABAC / 4 Ref Frames
Format settings, CABAC : Yes
Format settings, RefFrames : 4 frames
Codec ID : avc1
Codec ID/Info : Advanced Video Coding
Duration : 2 h 0 min
Source duration : 48 min 48 s
Bit rate : 5 712 kb/s
Width : 1 920 pixels
Height : 1 090 pixels
Original height : 1 080 pixels
Display aspect ratio : 16:9
Frame rate mode : Constant
Frame rate : 23.976 FPS
Color space : YUV
Chroma subsampling : 4:2:0
Bit depth : 8 bits
Scan type : Progressive
Bits/(Pixel*Frame) : 0.114
Stream size : 4.80 GiB (90%)
Source stream size : 4.80 GiB (90%)
Language : English
Encoded date : UTC 2018-02-04 13:12:50
Tagged date : UTC 2018-02-04 13:12:50

Audio #1
ID : 1
Format : MPEG Audio
Format version : Version 1
Format profile : Layer 2
Codec ID : mp4a-6B
Duration : 2 h 0 min
Bit rate mode : Constant
Bit rate : 128 kb/s
Channel(s) : 2 channels
Sampling rate : 44.1 kHz
Compression mode : Lossy
Stream size : 110 MiB (2%)
Language : English
Encoded date : UTC 2018-02-04 13:12:50
Tagged date : UTC 2018-02-04 13:12:50

Audio #2
ID : 2
Format : MPEG Audio
Format version : Version 1
Format profile : Layer 2
Codec ID : mp4a-6B
Duration : 2 h 0 min
Bit rate mode : Constant
Bit rate : 128 kb/s
Channel(s) : 2 channels
Sampling rate : 44.1 kHz
Compression mode : Lossy
Stream size : 110 MiB (2%)
Language : English
Encoded date : UTC 2018-02-04 13:12:50
Tagged date : UTC 2018-02-04 13:12:50

Audio #3
ID : 3
Format : MPEG Audio
Format version : Version 1
Format profile : Layer 2
Codec ID : mp4a-6B
Duration : 2 h 0 min
Bit rate mode : Constant
Bit rate : 128 kb/s
Channel(s) : 2 channels
Sampling rate : 44.1 kHz
Compression mode : Lossy
Stream size : 110 MiB (2%)
Language : French
Encoded date : UTC 2018-02-04 13:12:50
Tagged date : UTC 2018-02-04 13:12:50

Audio #4
ID : 4
Format : MPEG Audio
Format version : Version 1
Format profile : Layer 2
Codec ID : mp4a-6B
Duration : 2 h 0 min
Bit rate mode : Constant
Bit rate : 128 kb/s
Channel(s) : 2 channels
Sampling rate : 44.1 kHz
Compression mode : Lossy
Stream size : 110 MiB (2%)
Language : Spanish
Encoded date : UTC 2018-02-04 13:12:50
Tagged date : UTC 2018-02-04 13:12:50

Audio #5
ID : 5
Format : MPEG Audio
Format version : Version 1
Format profile : Layer 2
Codec ID : mp4a-6B
Duration : 2 h 0 min
Bit rate mode : Constant
Bit rate : 128 kb/s
Channel(s) : 2 channels
Sampling rate : 44.1 kHz
Compression mode : Lossy
Stream size : 110 MiB (2%)
Language : Portuguese
Encoded date : UTC 2018-02-04 13:12:50
Tagged date : UTC 2018-02-04 13:12:50





Mad Max: Fury Road (2015)


Mad Max: Fury Road (2015)


Mad Max: Fury Road (2015)


Mad Max: Fury Road (2015)


Mad Max: Fury Road (2015)