Tags
Language
Tags

Madea's Big Happy Family (2011)

Posted By: Tavaz
1080p (FullHD) / BDRip IMDb
Madea's Big Happy Family (2011)

Madea's Big Happy Family (2011)
BDRip | MOV | 1920x1080 | English | H264 @ 3616 kbps | AC-3 @ 448 kbps | 1 h 46 min | 3.03 GiB
Subtitles: English
Genre: Comedy, Drama

Shirley has important news for her family, but she has five grown children with different lifestyles and finds it difficult to get them and the kids all together. So in steps Madea, the Matriarch General, to put the family's life in perspective with a hilarious twist on financial difficulties, drugs and, most important, family secrets. The next generation has a lot to learn. In her own way, Madea expresses how deliverance won't change you to be someone else, but will allow you to be who you really are.

9b3c524b826146ffbaf184c13d98b8f1.mp4 (3.0 GB)



General
Complete name : ./9b3c524b826146ffbaf184c13d98b8f1.mp4
Format : MPEG-4
Format profile : Base Media / Version 2
Codec ID : mp42 (mp42/isom/avc1)
File size : 3.03 GiB
Duration : 1 h 46 min
Overall bit rate mode : Variable
Overall bit rate : 4 085 kb/s
Movie name : Madeas.Big.Happy.Family.2011.1080p.BluRay.H264.AC3.DD5.1
Encoded date : UTC 2020-06-27 21:03:05
Tagged date : UTC 2020-06-27 21:13:51
Writing application : DVDFab 11.0.4.2
Cover : Yes

Video
ID : 1
Format : AVC
Format/Info : Advanced Video Codec
Format profile : Main@L4
Format settings : CABAC / 2 Ref Frames
Format settings, CABAC : Yes
Format settings, RefFrames : 2 frames
Format settings, GOP : M=1, N=24
Codec ID : avc1
Codec ID/Info : Advanced Video Coding
Duration : 1 h 46 min
Source duration : 1 h 46 min
Bit rate mode : Variable
Bit rate : 3 616 kb/s
Maximum bit rate : 5 505 kb/s
Width : 1 920 pixels
Height : 1 080 pixels
Display aspect ratio : 16:9
Frame rate mode : Constant
Frame rate : 23.976 (24000/1001) FPS
Color space : YUV
Chroma subsampling : 4:2:0
Bit depth : 8 bits
Scan type : Progressive
Bits/(Pixel*Frame) : 0.073
Stream size : 2.68 GiB (89%)
Source stream size : 2.68 GiB (89%)
Encoded date : UTC 2020-06-27 21:03:05
Tagged date : UTC 2020-06-27 21:13:51
Color primaries : BT.709
Transfer characteristics : BT.709
Matrix coefficients : BT.709

Audio
ID : 2
Format : AC-3
Format/Info : Audio Coding 3
Format settings, Endianness : Big
Codec ID : ac-3
Duration : 1 h 46 min
Bit rate mode : Constant
Bit rate : 448 kb/s
Channel(s) : 6 channels
Channel positions : Front: L C R, Side: L R, LFE
Sampling rate : 48.0 kHz
Frame rate : 31.250 FPS (1536 SPF)
Bit depth : 16 bits
Compression mode : Lossy
Stream size : 341 MiB (11%)
Title : English (ac3 5.1)
Language : English
Service kind : Complete Main
Default : Yes
Alternate group : 1
Encoded date : UTC 2020-06-27 21:03:05
Tagged date : UTC 2020-06-27 21:13:51

Text
ID : 3
Format : VobSub
Codec ID : mp4s-E0
Codec ID/Info : The same subtitle format used on DVDs
Duration : 1 h 45 min
Bit rate mode : Variable
Bit rate : 18.6 kb/s
Maximum bit rate : 3 767 Mb/s
Stream size : 14.0 MiB (0%)
Language : English
Default : Yes
Forced : No
Alternate group : 2
Encoded date : UTC 2020-06-27 21:03:05
Tagged date : UTC 2020-06-27 21:13:45





Madea's Big Happy Family (2011)


Madea's Big Happy Family (2011)


Madea's Big Happy Family (2011)


Madea's Big Happy Family (2011)


Madea's Big Happy Family (2011)