Tags
Language
Tags

Mademoiselle (1966) [British Film Institute]

Posted By: RSU75
1080p (FullHD) / BDRip IMDb
Mademoiselle (1966) [British Film Institute]

Mademoiselle (1966) [British Film Institute]
BDRip | MKV | AVC, 1920x820, ~ 3.7 Mbps | 1hr 43mn | 3.32 GB
English: AC3, 2 ch, 448 kbps \ English: AC3, 2 ch, 448 kbps
BDRip | MKV | AVC, 1280x548, ~ 2.6 Mbps | 1hr 43mn | 2.52 MB
English: AC3, 2 ch, 448 kbps \ English: AC3, 2 ch, 448 kbps
Subtitles: English
Genre: Drama



Director: Tony Richardson
Writers: Marguerite Duras, Jean Genet (story)
Stars: Jeanne Moreau, Ettore Manni, Keith Skinner

Film Distributor: BFI (British Film Institute)

A supressed and sociopathic school teacher unsuspectedly torments residents of a small French village with acts of violence and destruction. An erotic obsession with an ostracised outsider causes her behaviour to become yet more erratic but, as tensions in the community reach boiling point, will the villagers see beyond their prejudices?

Extras:
- Newly recorded audio commentary by Adrian Martin




General
Unique ID : 222015033907105645656377046515662889147 (0xA7068A49EE1CDB6B9DB5DF9F0842A0BB)
Complete name : F:\Mademoiselle.1966.BFI.1p\Mademoiselle.1966.BFI.1p.mkv
Format : Matroska
Format version : Version 4
File size : 3.32 GiB
Duration : 1 h 43 min
Overall bit rate : 4 581 kb/s
Movie name : Release RSU75
Encoded date : UTC 2020-10-03 15:06:06
Writing application : mkvmerge v6.6.0 ('The Edge Of The In Between') built on Dec 1 2013 17:55:00
Writing library : libebml v1.3.0 + libmatroska v1.4.1

Video
ID : 1
Format : AVC
Format/Info : Advanced Video Codec
Format profile : High@L4.1
Format settings : CABAC / 4 Ref Frames
Format settings, CABAC : Yes
Format settings, Reference fra : 4 frames
Codec ID : V_MPEG4/ISO/AVC
Duration : 1 h 43 min
Bit rate : 3 700 kb/s
Width : 1 920 pixels
Height : 820 pixels
Display aspect ratio : 2.35:1
Frame rate mode : Constant
Frame rate : 23.976 (23976/1000) FPS
Color space : YUV
Chroma subsampling : 4:2:0
Bit depth : 8 bits
Scan type : Progressive
Bits/(Pixel*Frame) : 0.098
Stream size : 2.60 GiB (78%)
Writing library : x264 core 148 r2643 5c65704
Encoding settings : cabac=1 / ref=4 / deblock=1:0:0 / analyse=0x3:0x113 / me=umh / subme=8 / psy=1 / psy_rd=1.00:0.00 / mixed_ref=1 / me_range=24 / chroma_me=1 / trellis=1 / 8x8dct=1 / cqm=0 / deadzone=21,11 / fast_pskip=1 / chroma_qp_offset=-2 / threads=3 / lookahead_threads=1 / sliced_threads=0 / nr=0 / decimate=1 / interlaced=0 / bluray_compat=0 / constrained_intra=0 / bframes=3 / b_pyramid=0 / b_adapt=2 / b_bias=0 / direct=3 / weightb=1 / open_gop=0 / weightp=2 / keyint=250 / keyint_min=25 / scenecut=40 / intra_refresh=0 / rc_lookahead=40 / rc=abr / mbtree=1 / bitrate=3700 / ratetol=1.0 / qcomp=0.60 / qpmin=10 / qpmax=51 / qpstep=4 / ip_ratio=1.41 / aq=1:1.00
Language : English
Default : Yes
Forced : No
Duration_Source : General_Duration

Audio #1
ID : 2
Format : AC-3
Format/Info : Audio Coding 3
Commercial name : Dolby Digital
Codec ID : A_AC3
Duration : 1 h 43 min
Bit rate mode : Constant
Bit rate : 448 kb/s
Channel(s) : 2 channels
Channel layout : L R
Sampling rate : 44.1 kHz
Frame rate : 28.711 FPS (1536 SPF)
Compression mode : Lossy
Delay relative to video : -89 ms
Stream size : 332 MiB (10%)
Title : Stereo
Language : English
Service kind : Complete Main
Default : Yes
Forced : No
Duration_Source : General_Duration

Audio #2
ID : 3
Format : AC-3
Format/Info : Audio Coding 3
Commercial name : Dolby Digital
Codec ID : A_AC3
Duration : 1 h 43 min
Bit rate mode : Constant
Bit rate : 448 kb/s
Channel(s) : 2 channels
Channel layout : L R
Sampling rate : 44.1 kHz
Frame rate : 28.711 FPS (1536 SPF)
Compression mode : Lossy
Delay relative to video : -89 ms
Stream size : 332 MiB (10%)
Title : Stereo
Language : English
Service kind : Complete Main
Default : No
Forced : No
Duration_Source : General_Duration

Text #1
ID : 4
Format : PGS
Muxing mode : zlib
Codec ID : S_HDMV/PGS
Codec ID/Info : Picture based subtitle format used on BDs/HD-DVDs
Language : English
Default : Yes
Forced : No

Text #2
ID : 5
Format : PGS
Muxing mode : zlib
Codec ID : S_HDMV/PGS
Codec ID/Info : Picture based subtitle format used on BDs/HD-DVDs
Language : English
Default : No
Forced : No

Menu
00:00:00.083 : en:Chapter 01
00:09:03.125 : en:Chapter 02
00:18:36.115 : en:Chapter 03
00:36:29.770 : en:Chapter 04
00:53:49.059 : en:Chapter 05
01:09:06.642 : en:Chapter 06
01:20:43.964 : en:Chapter 07
01:29:07.675 : en:Chapter 08
01:37:30.761 : en:Chapter 09






General
Unique ID : 210912177568950442737596329532282235880 (0x9EAC35351B595EDE9E28E81091E5EBE8)
Complete name : F:\Mademoiselle.1966.BFI.7p\Mademoiselle.1966.BFI.7p.mkv
Format : Matroska
Format version : Version 4
File size : 2.52 GiB
Duration : 1 h 43 min
Overall bit rate : 3 488 kb/s
Movie name : Release RSU75
Encoded date : UTC 2020-10-03 15:36:43
Writing application : mkvmerge v6.6.0 ('The Edge Of The In Between') built on Dec 1 2013 17:55:00
Writing library : libebml v1.3.0 + libmatroska v1.4.1

Video
ID : 1
Format : AVC
Format/Info : Advanced Video Codec
Format profile : High@L4.1
Format settings : CABAC / 4 Ref Frames
Format settings, CABAC : Yes
Format settings, Reference fra : 4 frames
Codec ID : V_MPEG4/ISO/AVC
Duration : 1 h 43 min
Bit rate : 2 600 kb/s
Width : 1 280 pixels
Height : 548 pixels
Display aspect ratio : 2.35:1
Frame rate mode : Constant
Frame rate : 23.976 (23976/1000) FPS
Color space : YUV
Chroma subsampling : 4:2:0
Bit depth : 8 bits
Scan type : Progressive
Bits/(Pixel*Frame) : 0.155
Stream size : 1.83 GiB (72%)
Writing library : x264 core 148 r2643 5c65704
Encoding settings : cabac=1 / ref=4 / deblock=1:0:0 / analyse=0x3:0x113 / me=umh / subme=8 / psy=1 / psy_rd=1.00:0.00 / mixed_ref=1 / me_range=24 / chroma_me=1 / trellis=1 / 8x8dct=1 / cqm=0 / deadzone=21,11 / fast_pskip=1 / chroma_qp_offset=-2 / threads=3 / lookahead_threads=1 / sliced_threads=0 / nr=0 / decimate=1 / interlaced=0 / bluray_compat=0 / constrained_intra=0 / bframes=3 / b_pyramid=0 / b_adapt=2 / b_bias=0 / direct=3 / weightb=1 / open_gop=0 / weightp=2 / keyint=250 / keyint_min=25 / scenecut=40 / intra_refresh=0 / rc_lookahead=40 / rc=abr / mbtree=1 / bitrate=2600 / ratetol=1.0 / qcomp=0.60 / qpmin=10 / qpmax=51 / qpstep=4 / ip_ratio=1.41 / aq=1:1.00
Language : English
Default : Yes
Forced : No
Duration_Source : General_Duration

Audio #1
ID : 2
Format : AC-3
Format/Info : Audio Coding 3
Commercial name : Dolby Digital
Codec ID : A_AC3
Duration : 1 h 43 min
Bit rate mode : Constant
Bit rate : 448 kb/s
Channel(s) : 2 channels
Channel layout : L R
Sampling rate : 44.1 kHz
Frame rate : 28.711 FPS (1536 SPF)
Compression mode : Lossy
Delay relative to video : -89 ms
Stream size : 332 MiB (13%)
Title : Stereo
Language : English
Service kind : Complete Main
Default : Yes
Forced : No
Duration_Source : General_Duration

Audio #2
ID : 3
Format : AC-3
Format/Info : Audio Coding 3
Commercial name : Dolby Digital
Codec ID : A_AC3
Duration : 1 h 43 min
Bit rate mode : Constant
Bit rate : 448 kb/s
Channel(s) : 2 channels
Channel layout : L R
Sampling rate : 44.1 kHz
Frame rate : 28.711 FPS (1536 SPF)
Compression mode : Lossy
Delay relative to video : -89 ms
Stream size : 332 MiB (13%)
Title : Stereo
Language : English
Service kind : Complete Main
Default : No
Forced : No
Duration_Source : General_Duration

Text #1
ID : 4
Format : PGS
Muxing mode : zlib
Codec ID : S_HDMV/PGS
Codec ID/Info : Picture based subtitle format used on BDs/HD-DVDs
Language : English
Default : Yes
Forced : No

Text #2
ID : 5
Format : PGS
Muxing mode : zlib
Codec ID : S_HDMV/PGS
Codec ID/Info : Picture based subtitle format used on BDs/HD-DVDs
Language : English
Default : No
Forced : No

Menu
00:00:00.083 : en:Chapter 01
00:09:03.125 : en:Chapter 02
00:18:36.115 : en:Chapter 03
00:36:29.770 : en:Chapter 04
00:53:49.059 : en:Chapter 05
01:09:06.642 : en:Chapter 06
01:20:43.964 : en:Chapter 07
01:29:07.675 : en:Chapter 08
01:37:30.761 : en:Chapter 09




Screenshots 1080p (click to enlarge to original size):

Mademoiselle (1966) [British Film Institute]

Mademoiselle (1966) [British Film Institute]

Mademoiselle (1966) [British Film Institute]



Screenshots 720p (click to enlarge to original size):

Mademoiselle (1966) [British Film Institute]





More in My Blog



If you like this release please visit my blog
In it you will find ALL the latest BFI releases