The Moving Visuals Company - Making Mao (2009)

Posted By: vivid23
The Moving Visuals Company - Making Mao (2009)

The Moving Visuals Company - Making Mao (2009)
HDTV | 1280x720 | MKV/x264 @ 2893 Kbps | 51mn | Audio: English AC3 192 kbps, 2 channels | Subs: None | 1.14 GB
Genre: Documentary

When the Communist Party took over China in 1949, it engineered a massive propaganda effort to win over the people's hearts and minds. MAKING MAO revisits the people and events responsible for making Mao Zedong the star of this cultural phenomenon. It was an artistic yet brutal onslaught of images and slogans that lasted over 25 years and kept him in power. Yet while Mao was celebrated as a God by most, those who did not abide became victimes. Our story examines what created and perpetuated this mass hysteria, and revisits the art that would both shape and nearly destroy a nation.

Video
ID : 1
Format : AVC
Format/Info : Advanced Video Codec
Format profile : High@L4.1
Format settings, CABAC : Yes
Format settings, ReFrames : 8 frames
Muxing mode : Header stripping
Codec ID : V_MPEG4/ISO/AVC
Duration : 51mn 45s
Bit rate : 2 893 Kbps
Width : 1 280 pixels
Height : 720 pixels
Display aspect ratio : 16:9
Frame rate : 29.970 fps
Color space : YUV
Chroma subsampling : 4:2:0
Bit depth : 8 bits
Scan type : Progressive
Bits/(Pixel*Frame) : 0.105
Stream size : 1.05 GiB (92%)
Language : English

Audio
ID : 2
Format : AC-3
Format/Info : Audio Coding 3
Mode extension : CM (complete main)
Muxing mode : Header stripping
Codec ID : A_AC3
Duration : 51mn 45s
Bit rate mode : Constant
Bit rate : 192 Kbps
Channel(s) : 2 channels
Channel positions : Front: L R
Sampling rate : 48.0 KHz
Bit depth : 16 bits
Compression mode : Lossy
Stream size : 71.1 MiB (6%)


The Moving Visuals Company - Making Mao (2009)

The Moving Visuals Company - Making Mao (2009)


Feel free to contact me when links are dead