Tags
Language
Tags
April 2024
Su Mo Tu We Th Fr Sa
31 1 2 3 4 5 6
7 8 9 10 11 12 13
14 15 16 17 18 19 20
21 22 23 24 25 26 27
28 29 30 1 2 3 4

Malaikottai Vaaliban (2024)

Posted By: Tavaz
2160p (4k UHD) / WEBRip IMDb
Malaikottai Vaaliban (2024)

Malaikottai Vaaliban (2024)
WEBRip | MKV | 3840x1606 | हिन्दी | H265 @ 5309 kbps | E-AC-3 @ 192.0 kbps | 2 h 34 min | 6.75 GiB
Subtitles: English
Genre: Action, Drama, Fantasy, Thriller, Western

Journey of Malaikottai Vaaliban, an undisputed warrior, transcends time and geographies, triumphing over every opponent he encounters.

Malaikottai.Vaaliban.2024.2160p.WebRip.Multi.EAC3.5.1.x265-Groupless.mkv (6.7 GB)



General
Unique ID : 32121204536815190932649957684532516382 (0x182A51A7CD9FE19800BDA468FB68961E)
Complete name : ./Malaikottai.Vaaliban.2024.2160p.WebRip.Multi.EAC3.5.1.x265-Groupless.mkv
Format : Matroska
Format version : Version 4
File size : 6.75 GiB
Duration : 2 h 34 min
Overall bit rate : 6 273 kb/s
Movie name : Malaikottai Vaaliban / Malaikottai Vaaliban
ContentType : Movie
Description : An uncontested warrior proves himself to be a reigning hero across time and geographies, defeating every opponent he encounters.
Writing application : mkvmerge v82.0 ('I'm The President') 64-bit
Writing library : libebml v1.4.5 + libmatroska v1.7.1
Cover : Yes
Attachments : cover.jpg
ACTOR : Mohanlal, Sonalee Kulkarni, Hareesh Peradi, Danish Sait, Manoj Moses, Katha Nandi, Suchithra Nair, Andrea Ravera, Rajeev Pillai
ARTIST : Mohanlal, Sonalee Kulkarni, Hareesh Peradi, Danish Sait, Manoj Moses, Katha Nandi, Suchithra Nair, Andrea Ravera, Rajeev Pillai
DIRECTOR : Lijo Jose Pellissery
GENRE : Action, Drama
SCREENPLAY_BY : P S Rafeeque
SUMMARY : An uncontested warrior proves himself to be a reigning hero across time and geographies, defeating every opponent he encounters.
SYNOPSIS : An uncontested warrior proves himself to be a reigning hero across time and geographies, defeating every opponent he encounters.
WRITTEN_BY : P S Rafeeque

Video
ID : 1
Format : HEVC
Format/Info : High Efficiency Video Coding
Format profile : Main 10@L5@Main
Codec ID : V_MPEGH/ISO/HEVC
Duration : 2 h 34 min
Bit rate : 5 310 kb/s
Width : 3 840 pixels
Height : 1 606 pixels
Display aspect ratio : 2.40:1
Frame rate mode : Constant
Frame rate : 24.000 FPS
Color space : YUV
Chroma subsampling : 4:2:0
Bit depth : 10 bits
Bits/(Pixel*Frame) : 0.036
Stream size : 5.71 GiB (85%)
Default : Yes
Forced : No

Audio #1
ID : 2
Format : E-AC-3
Format/Info : Enhanced AC-3
Commercial name : Dolby Digital Plus
Codec ID : A_EAC3
Duration : 2 h 34 min
Bit rate mode : Constant
Bit rate : 192 kb/s
Channel(s) : 6 channels
Channel layout : L R C LFE Ls Rs
Sampling rate : 48.0 kHz
Frame rate : 31.250 FPS (1536 SPF)
Compression mode : Lossy
Stream size : 212 MiB (3%)
Language : Malayalam
Service kind : Complete Main
Default : No
Forced : No

Audio #2
ID : 3
Format : E-AC-3
Format/Info : Enhanced AC-3
Commercial name : Dolby Digital Plus
Codec ID : A_EAC3
Duration : 2 h 34 min
Bit rate mode : Constant
Bit rate : 192 kb/s
Channel(s) : 6 channels
Channel layout : L R C LFE Ls Rs
Sampling rate : 48.0 kHz
Frame rate : 31.250 FPS (1536 SPF)
Compression mode : Lossy
Stream size : 212 MiB (3%)
Language : Hindi
Service kind : Complete Main
Default : No
Forced : No

Audio #3
ID : 4
Format : E-AC-3
Format/Info : Enhanced AC-3
Commercial name : Dolby Digital Plus
Codec ID : A_EAC3
Duration : 2 h 34 min
Bit rate mode : Constant
Bit rate : 192 kb/s
Channel(s) : 6 channels
Channel layout : L R C LFE Ls Rs
Sampling rate : 48.0 kHz
Frame rate : 31.250 FPS (1536 SPF)
Compression mode : Lossy
Stream size : 212 MiB (3%)
Language : Kannada
Service kind : Complete Main
Default : No
Forced : No

Audio #4
ID : 5
Format : E-AC-3
Format/Info : Enhanced AC-3
Commercial name : Dolby Digital Plus
Codec ID : A_EAC3
Duration : 2 h 34 min
Bit rate mode : Constant
Bit rate : 192 kb/s
Channel(s) : 6 channels
Channel layout : L R C LFE Ls Rs
Sampling rate : 48.0 kHz
Frame rate : 31.250 FPS (1536 SPF)
Compression mode : Lossy
Stream size : 212 MiB (3%)
Language : Tamil
Service kind : Complete Main
Default : No
Forced : No

Audio #5
ID : 6
Format : E-AC-3
Format/Info : Enhanced AC-3
Commercial name : Dolby Digital Plus
Codec ID : A_EAC3
Duration : 2 h 34 min
Bit rate mode : Constant
Bit rate : 192 kb/s
Channel(s) : 6 channels
Channel layout : L R C LFE Ls Rs
Sampling rate : 48.0 kHz
Frame rate : 31.250 FPS (1536 SPF)
Compression mode : Lossy
Stream size : 212 MiB (3%)
Language : Telugu
Service kind : Complete Main
Default : No
Forced : No

Text
ID : 7
Format : UTF-8
Codec ID : S_TEXT/UTF8
Codec ID/Info : UTF-8 Plain Text
Duration : 2 h 27 min
Bit rate : 29 b/s
Frame rate : 0.096 FPS
Count of elements : 854
Stream size : 31.8 KiB (0%)
Language : English
Default : No
Forced : No

Menu
00:00:00.000 : en:Chapter 1





Malaikottai Vaaliban (2024)


Malaikottai Vaaliban (2024)


Malaikottai Vaaliban (2024)


Malaikottai Vaaliban (2024)


Malaikottai Vaaliban (2024)