Tags
Language
Tags

Mandy the Doll (2018)

Posted By: Without
1080p (FullHD) / BDRip IMDb
Mandy the Doll (2018)

Mandy the Doll (2018)
BDRip | MKV | 720x300 | AVC@397 kb/s | English AAC@113 kb/s | 2 channels | 1 h 17 min | 284 MB
BDRip 720p | MKV | 1280x536 | AVC@4542 kb/s | English DTS@1509 kb/s | 6 channels | 1 h 17 min | 3.28 GB
BDRip 1080p | MKV | 1920x800 | AVC@8581 kb/s | English DTS@1509 kb/s | 6 channels | 1 h 17 min | 5.46 GB
Genre: Horror

Three burglars will soon realise they are not alone in a manor house when they discover a doll mysteriously appearing.



General
mandy.the.doll.2018.bdrip.x264-getit.mkv
Format : Matroska
Format version : Version 4 / Version 2
File size : 284 MiB
Duration : 1 h 17 min
Overall bit rate : 512 kb/s
Encoded date : UTC 2018-12-13 15:10:38
Writing application : mkvmerge v7.9.0 ('Birds') 64bit
Writing library : libebml v1.3.1 + libmatroska v1.4.2

Video
ID : 1
Format : AVC
Format/Info : Advanced Video Codec
Format profile : High@L3.1
Format settings, CABAC : Yes
Format settings, ReFrames : 5 frames
Codec ID : V_MPEG4/ISO/AVC
Duration : 1 h 17 min
Bit rate : 397 kb/s
Width : 720 pixels
Height : 300 pixels
Display aspect ratio : 2.40:1
Frame rate mode : Constant
Frame rate : 23.976 (24000/1001) FPS
Color space : YUV
Chroma subsampling : 4:2:0
Bit depth : 8 bits
Scan type : Progressive
Bits/(Pixel*Frame) : 0.077
Stream size : 220 MiB (78%)
Writing library : x264 core 157 r2935 545de2f
Encoding settings : cabac=1 / ref=5 / deblock=1:0:0 / analyse=0x3:0x113 / me=hex / subme=8 / psy=1 / psy_rd=1.00:0.00 / mixed_ref=1 / me_range=16 / chroma_me=1 / trellis=2 / 8x8dct=1 / cqm=0 / deadzone=21,11 / fast_pskip=1 / chroma_qp_offset=-2 / threads=9 / lookahead_threads=1 / sliced_threads=0 / nr=0 / decimate=1 / interlaced=0 / bluray_compat=0 / constrained_intra=0 / bframes=3 / b_pyramid=2 / b_adapt=1 / b_bias=0 / direct=3 / weightb=1 / open_gop=0 / weightp=2 / keyint=250 / keyint_min=23 / scenecut=40 / intra_refresh=0 / rc_lookahead=50 / rc=crf / mbtree=1 / crf=19.0 / qcomp=0.60 / qpmin=0 / qpmax=69 / qpstep=4 / ip_ratio=1.40 / aq=1:1.00
Language : English
Default : Yes
Forced : No
Color range : Limited
Matrix coefficients : BT.709

Audio
ID : 2
Format : AAC
Format/Info : Advanced Audio Codec
Format profile : LC
Codec ID : A_AAC
Duration : 1 h 17 min
Bit rate : 113 kb/s
Channel(s) : 2 channels
Channel positions : Front: L R
Sampling rate : 48.0 kHz
Frame rate : 46.875 FPS (1024 spf)
Compression mode : Lossy
Delay relative to video : 9 ms
Stream size : 62.5 MiB (22%)
Title : AAC
Language : English
Default : Yes
Forced : No

Menu
00:00:00.000 : en:00:00:00.000
00:10:26.000 : en:00:10:26.000
00:19:44.975 : en:00:19:44.975
00:29:54.960 : en:00:29:54.960
00:39:54.976 : en:00:39:54.976
00:49:24.920 : en:00:49:24.920
00:58:21.915 : en:00:58:21.915
01:08:10.920 : en:01:08:10.920
01:15:13.926 : en:01:15:13.926


General
mandy.the.doll.2018.720p.bluray.x264-getit.mkv
Format : Matroska
Format version : Version 4 / Version 2
File size : 3.28 GiB
Duration : 1 h 17 min
Overall bit rate : 6 051 kb/s
Encoded date : UTC 2018-12-13 15:11:32
Writing application : mkvmerge v7.9.0 ('Birds') 64bit
Writing library : libebml v1.3.1 + libmatroska v1.4.2

Video
ID : 1
Format : AVC
Format/Info : Advanced Video Codec
Format profile : High@L4.1
Format settings, CABAC : Yes
Format settings, ReFrames : 5 frames
Codec ID : V_MPEG4/ISO/AVC
Duration : 1 h 17 min
Bit rate : 4 542 kb/s
Width : 1 280 pixels
Height : 536 pixels
Display aspect ratio : 2.40:1
Frame rate mode : Constant
Frame rate : 23.976 (24000/1001) FPS
Color space : YUV
Chroma subsampling : 4:2:0
Bit depth : 8 bits
Scan type : Progressive
Bits/(Pixel*Frame) : 0.276
Stream size : 2.46 GiB (75%)
Writing library : x264 core 157 r2935 545de2f
Encoding settings : cabac=1 / ref=5 / deblock=1:0:0 / analyse=0x3:0x133 / me=umh / subme=7 / psy=1 / psy_rd=1.00:0.00 / mixed_ref=1 / me_range=16 / chroma_me=1 / trellis=2 / 8x8dct=1 / cqm=0 / deadzone=21,11 / fast_pskip=0 / chroma_qp_offset=-2 / threads=17 / lookahead_threads=2 / sliced_threads=0 / nr=0 / decimate=1 / interlaced=0 / bluray_compat=0 / constrained_intra=0 / bframes=3 / b_pyramid=2 / b_adapt=1 / b_bias=0 / direct=3 / weightb=1 / open_gop=0 / weightp=2 / keyint=250 / keyint_min=23 / scenecut=40 / intra_refresh=0 / rc_lookahead=50 / rc=2pass / mbtree=1 / bitrate=4542 / ratetol=1.0 / qcomp=0.60 / qpmin=0 / qpmax=69 / qpstep=4 / cplxblur=20.0 / qblur=0.5 / ip_ratio=1.40 / aq=1:1.00
Language : English
Default : Yes
Forced : No

Audio
ID : 2
Format : DTS
Format/Info : Digital Theater Systems
Mode : 16
Format settings, Endianness : Big
Codec ID : A_DTS
Duration : 1 h 17 min
Bit rate mode : Constant
Bit rate : 1 509 kb/s
Channel(s) : 6 channels
Channel positions : Front: L C R, Side: L R, LFE
Sampling rate : 48.0 kHz
Frame rate : 93.750 FPS (512 spf)
Bit depth : 24 bits
Compression mode : Lossy
Stream size : 837 MiB (25%)
Title : DTS
Language : English
Default : Yes
Forced : No

Menu
00:00:00.000 : en:00:00:00.000
00:10:26.000 : en:00:10:26.000
00:19:44.975 : en:00:19:44.975
00:29:54.960 : en:00:29:54.960
00:39:54.976 : en:00:39:54.976
00:49:24.920 : en:00:49:24.920
00:58:21.915 : en:00:58:21.915
01:08:10.920 : en:01:08:10.920
01:15:13.926 : en:01:15:13.926


General
mandy.the.doll.2018.1080p.bluray.x264-getit.mkv
Format : Matroska
Format version : Version 4 / Version 2
File size : 5.46 GiB
Duration : 1 h 17 min
Overall bit rate : 10.1 Mb/s
Encoded date : UTC 2018-12-13 16:24:17
Writing application : mkvmerge v7.9.0 ('Birds') 64bit
Writing library : libebml v1.3.1 + libmatroska v1.4.2

Video
ID : 1
Format : AVC
Format/Info : Advanced Video Codec
Format profile : High@L4.1
Format settings, CABAC : Yes
Format settings, ReFrames : 5 frames
Codec ID : V_MPEG4/ISO/AVC
Duration : 1 h 17 min
Bit rate : 8 581 kb/s
Width : 1 920 pixels
Height : 800 pixels
Display aspect ratio : 2.40:1
Frame rate mode : Constant
Frame rate : 23.976 (24000/1001) FPS
Color space : YUV
Chroma subsampling : 4:2:0
Bit depth : 8 bits
Scan type : Progressive
Bits/(Pixel*Frame) : 0.233
Stream size : 4.65 GiB (85%)
Writing library : x264 core 157 r2935 545de2f
Encoding settings : cabac=1 / ref=5 / deblock=1:0:0 / analyse=0x3:0x133 / me=umh / subme=7 / psy=1 / psy_rd=1.00:0.00 / mixed_ref=1 / me_range=16 / chroma_me=1 / trellis=2 / 8x8dct=1 / cqm=0 / deadzone=21,11 / fast_pskip=0 / chroma_qp_offset=-2 / threads=18 / lookahead_threads=3 / sliced_threads=0 / nr=0 / decimate=1 / interlaced=0 / bluray_compat=0 / constrained_intra=0 / bframes=3 / b_pyramid=2 / b_adapt=1 / b_bias=0 / direct=3 / weightb=1 / open_gop=0 / weightp=2 / keyint=250 / keyint_min=23 / scenecut=40 / intra_refresh=0 / rc_lookahead=50 / rc=2pass / mbtree=1 / bitrate=8581 / ratetol=1.0 / qcomp=0.60 / qpmin=0 / qpmax=69 / qpstep=4 / cplxblur=20.0 / qblur=0.5 / ip_ratio=1.40 / aq=1:1.00
Language : English
Default : Yes
Forced : No

Audio
ID : 2
Format : DTS
Format/Info : Digital Theater Systems
Mode : 16
Format settings, Endianness : Big
Codec ID : A_DTS
Duration : 1 h 17 min
Bit rate mode : Constant
Bit rate : 1 509 kb/s
Channel(s) : 6 channels
Channel positions : Front: L C R, Side: L R, LFE
Sampling rate : 48.0 kHz
Frame rate : 93.750 FPS (512 spf)
Bit depth : 24 bits
Compression mode : Lossy
Stream size : 837 MiB (15%)
Title : DTS
Language : English
Default : Yes
Forced : No

Menu
00:00:00.000 : en:00:00:00.000
00:10:26.000 : en:00:10:26.000
00:19:44.975 : en:00:19:44.975
00:29:54.960 : en:00:29:54.960
00:39:54.976 : en:00:39:54.976
00:49:24.920 : en:00:49:24.920
00:58:21.915 : en:00:58:21.915
01:08:10.920 : en:01:08:10.920
01:15:13.926 : en:01:15:13.926



BDRip Screenshots

Mandy the Doll (2018)

Mandy the Doll (2018)

Mandy the Doll (2018)


BDRip 720p Screenshots

Mandy the Doll (2018)

Mandy the Doll (2018)

Mandy the Doll (2018)


BDRip 1080p Screenshots

Mandy the Doll (2018)

Mandy the Doll (2018)

Mandy the Doll (2018)


Come Visit My Blog (•‿•)