Tags
Language
Tags

Marfa Girl 2 (2018)

Posted By: Tavaz
1080p (FullHD) / BDRip IMDb
Marfa Girl 2 (2018)

Marfa Girl 2 (2018)
BDRip | MKV | 1920x1080 | English | H264 @ 5760 kbps | AC-3 @ 448 kbps | 1 h 15 min | 3.29 GiB
Subtitles: English
Genre: Drama

A family living in Marfa, Texas attempts to pull themselves back together after a horrific tragedy. This provocative sequel to Larry Clark's film Marfa Girl, shows us a group of people ready to escape their current realities - no matter the cost. Gritty, unrelenting and powerful, auteur Clark once again delivers a bleak landscape of sex, drugs and boredom amongst the residents of a dead-end Texas Border town.

ef07d31714bb4dff9928f23c7f27f3ec.mkv (3.3 GB)



General
Unique ID : 274995434447101078916501764920748926942 (0xCEE231B597E709AD08CE7FDE598DE7DE)
Complete name : ./ef07d31714bb4dff9928f23c7f27f3ec.mkv
Format : Matroska
Format version : Version 4 / Version 2
File size : 3.29 GiB
Duration : 1 h 15 min
Overall bit rate : 6 204 kb/s
Movie name : Marfa.Girl.2.2018.1080p.BluRay.x264-nikt0
Encoded date : UTC 2020-12-11 21:33:28 / UTC 2020-12-11T01:14:25Z
Writing application : mkvmerge v47.0.0 ('Black Flag') 64-bit
Writing library : libebml v1.3.10 + libmatroska v1.5.2 / Lavf57.7.2

Video
ID : 1
Format : AVC
Format/Info : Advanced Video Codec
Format profile : High@L4
Format settings : CABAC / 4 Ref Frames
Format settings, CABAC : Yes
Format settings, RefFrames : 4 frames
Codec ID : V_MPEG4/ISO/AVC
Duration : 1 h 15 min
Bit rate : 5 760 kb/s
Width : 1 920 pixels
Height : 1 080 pixels
Display aspect ratio : 16:9
Frame rate mode : Constant
Frame rate : 23.976 (24000/1001) FPS
Color space : YUV
Chroma subsampling : 4:2:0
Bit depth : 8 bits
Scan type : Progressive
Bits/(Pixel*Frame) : 0.116
Stream size : 2.99 GiB (91%)
Writing library : x264 core 155 r2901 7d0ff22
Encoding settings : cabac=1 / ref=4 / deblock=1:-3:-3 / analyse=0x3:0x133 / me=umh / subme=9 / psy=1 / psy_rd=1.10:0.25 / mixed_ref=1 / me_range=32 / chroma_me=1 / trellis=2 / 8x8dct=1 / cqm=0 / deadzone=6,6 / fast_pskip=1 / chroma_qp_offset=-4 / threads=34 / lookahead_threads=3 / sliced_threads=0 / nr=0 / decimate=1 / interlaced=0 / bluray_compat=0 / constrained_intra=0 / bframes=6 / b_pyramid=2 / b_adapt=2 / b_bias=0 / direct=3 / weightb=1 / open_gop=0 / weightp=2 / keyint=240 / keyint_min=24 / scenecut=40 / intra_refresh=0 / rc_lookahead=40 / rc=2pass / mbtree=1 / bitrate=5760 / ratetol=1.0 / qcomp=0.60 / qpmin=0 / qpmax=69 / qpstep=4 / cplxblur=20.0 / qblur=0.5 / vbv_maxrate=20000 / vbv_bufsize=25000 / nal_hrd=none / filler=0 / ip_ratio=1.40 / aq=1:1.00
Language : English
Default : Yes
Forced : No
Color range : Limited
Color primaries : BT.709
Transfer characteristics : BT.709
Matrix coefficients : BT.709
Statistics Tags Issue : mkvmerge v47.0.0 ('Black Flag') 64-bit 2020-12-11 21:33:28 / mkvmerge v47.0.0 ('Black Flag') 64-bit 2020-12-11 21:33:28 / UTC 2020-12-11T01:14:25Z
FromStats_BitRate : 5754466
FromStats_Duration : 01:15:58.387000000
FromStats_FrameCount : 109292
FromStats_StreamSize : 3278885690

Audio
ID : 2
Format : AC-3
Format/Info : Audio Coding 3
Format settings, Endianness : Big
Codec ID : A_AC3
Duration : 1 h 15 min
Bit rate mode : Constant
Bit rate : 448 kb/s
Channel(s) : 6 channels
Channel positions : Front: L C R, Side: L R, LFE
Sampling rate : 48.0 kHz
Frame rate : 31.250 FPS (1536 SPF)
Bit depth : 16 bits
Compression mode : Lossy
Stream size : 243 MiB (7%)
Title : Surround
Language : English
Service kind : Complete Main
Default : Yes
Forced : No
Statistics Tags Issue : mkvmerge v47.0.0 ('Black Flag') 64-bit 2020-12-11 21:33:28 / mkvmerge v47.0.0 ('Black Flag') 64-bit 2020-12-11 21:33:28 / UTC 2020-12-11T01:14:25Z
FromStats_BitRate : 448000
FromStats_Duration : 01:15:58.400000000
FromStats_FrameCount : 142450
FromStats_StreamSize : 255270400

Text
ID : 3
Format : UTF-8
Codec ID : S_TEXT/UTF8
Codec ID/Info : UTF-8 Plain Text
Language : English
Default : Yes
Forced : No
Statistics Tags Issue : mkvmerge v47.0.0 ('Black Flag') 64-bit 2020-12-11 21:33:28 / mkvmerge v47.0.0 ('Black Flag') 64-bit 2020-12-11 21:33:28 / UTC 2020-12-11T01:14:25Z
FromStats_BitRate : 38
FromStats_Duration : 01:14:13.318000000
FromStats_FrameCount : 758
FromStats_StreamSize : 21618

Menu
00:00:00.000 : :Chapter 1
00:06:55.498 : :Chapter 2
00:12:26.746 : :Chapter 3
00:19:44.266 : :Chapter 4
00:24:38.560 : :Chapter 5
00:31:10.869 : :Chapter 6
00:37:52.353 : :Chapter 7
00:43:02.663 : :Chapter 8
00:51:06.105 : :Chapter 9
00:56:44.443 : :Chapter 10
01:02:39.839 : :Chapter 11
01:09:53.231 : :Chapter 12





Marfa Girl 2 (2018)


Marfa Girl 2 (2018)


Marfa Girl 2 (2018)


Marfa Girl 2 (2018)


Marfa Girl 2 (2018)