Tags
Language
Tags

Married to Medicine S05E06

Posted By: Tavaz
720p (HD) / WEB-DL IMDb
Married to Medicine S05E06

Married to Medicine S05E06
WEB-DL | MKV | 1280x720 | English | H264 @ 4113 kbps | E-AC-3 @ 640 kbps | 43 min 13 s | 1.44 GiB
Subtitles: English

Follows a group of successful and educated women who are connected to the world of medicine in Atlanta, including doctors and wives of doctors. Whether delivering babies in Louboutins or rushing off to galas in Buckhead, these women do everything with style, drama, and of course, southern flair.

72b50d87ad33493e8863ccc760b68536.mkv (1.4 GB)



General
Complete name : ./72b50d87ad33493e8863ccc760b68536.mkv
Format : Matroska
Format version : Version 4 / Version 2
File size : 1.44 GiB
Duration : 43 min 13 s
Overall bit rate mode : Variable
Overall bit rate : 4 756 kb/s
Encoded date : UTC 2017-12-16 15:47:55
Writing application : mkvmerge v14.0.0 ('Flow') 64bit
Writing library : libebml v1.3.4 + libmatroska v1.4.5

Video
ID : 1
Format : AVC
Format/Info : Advanced Video Codec
Format profile : High@L3.1
Format settings : CABAC / 5 Ref Frames
Format settings, CABAC : Yes
Format settings, RefFrames : 5 frames
Codec ID : V_MPEG4/ISO/AVC
Duration : 43 min 13 s
Bit rate mode : Variable
Bit rate : 4 114 kb/s
Maximum bit rate : 4 500 kb/s
Width : 1 280 pixels
Height : 720 pixels
Display aspect ratio : 16:9
Frame rate mode : Constant
Frame rate : 23.976 (24000/1001) FPS
Color space : YUV
Chroma subsampling : 4:2:0
Bit depth : 8 bits
Scan type : Progressive
Bits/(Pixel*Frame) : 0.186
Stream size : 1.24 GiB (86%)
Default : Yes
Forced : No
Color range : Limited
Color primaries : BT.709
Transfer characteristics : BT.709
Matrix coefficients : BT.709

Audio
ID : 2
Format : E-AC-3
Format/Info : Enhanced Audio Coding 3
Format settings, Endianness : Big
Codec ID : A_EAC3
Duration : 43 min 13 s
Bit rate mode : Constant
Bit rate : 640 kb/s
Channel(s) : 6 channels
Channel positions : Front: L C R, Side: L R, LFE
Sampling rate : 48.0 kHz
Frame rate : 187.500 FPS (256 SPF)
Compression mode : Lossy
Stream size : 198 MiB (13%)
Language : English
Service kind : Complete Main
Default : Yes
Forced : No

Text
ID : 3
Format : UTF-8
Codec ID : S_TEXT/UTF8
Codec ID/Info : UTF-8 Plain Text
Duration : 42 min 56 s
Bit rate : 113 b/s
Count of elements : 1100
Stream size : 35.8 KiB (0%)
Language : English
Default : No
Forced : No





Married to Medicine S05E06


Married to Medicine S05E06


Married to Medicine S05E06


Married to Medicine S05E06


Married to Medicine S05E06

All episodes