Tags
Language
Tags

Married to Medicine S05E07

Posted By: Tavaz
1080p (FullHD) / WEBRip IMDb
Married to Medicine S05E07

Married to Medicine S05E07
WEBRip | MKV | 1920x1080 | English | H264 @ 4096 kbps | AAC @ 76 kbps | 43 min 23 s | 1.27 GiB

Follows a group of successful and educated women who are connected to the world of medicine in Atlanta, including doctors and wives of doctors. Whether delivering babies in Louboutins or rushing off to galas in Buckhead, these women do everything with style, drama, and of course, southern flair.

ff1f5e27db034956943eeed68fc88438.mkv (1.3 GB)



General
Complete name : ./ff1f5e27db034956943eeed68fc88438.mkv
Format : Matroska
Format version : Version 4 / Version 2
File size : 1.27 GiB
Duration : 43 min 23 s
Overall bit rate : 4 195 kb/s
Encoded date : UTC 2017-12-23 11:18:21
Writing application : mkvmerge v8.8.0 ('Wind at my back') 64bit
Writing library : libebml v1.3.3 + libmatroska v1.4.4

Video
ID : 1
Format : AVC
Format/Info : Advanced Video Codec
Format profile : Main@L4
Format settings : CABAC / 1 Ref Frames
Format settings, CABAC : Yes
Format settings, RefFrames : 1 frame
Format settings, GOP : M=1, N=48
Codec ID : V_MPEG4/ISO/AVC
Duration : 43 min 23 s
Bit rate : 4 096 kb/s
Width : 1 920 pixels
Height : 1 080 pixels
Display aspect ratio : 16:9
Frame rate mode : Constant
Frame rate : 23.976 (24000/1001) FPS
Color space : YUV
Chroma subsampling : 4:2:0
Bit depth : 8 bits
Scan type : Progressive
Bits/(Pixel*Frame) : 0.082
Stream size : 1.25 GiB (98%)
Writing library : x264 core 120
Encoding settings : cabac=1 / ref=1 / deblock=1:0:0 / analyse=0x1:0x111 / me=hex / subme=6 / psy=1 / psy_rd=1.00:0.00 / mixed_ref=0 / me_range=16 / chroma_me=0 / trellis=1 / 8x8dct=0 / cqm=0 / deadzone=21,11 / fast_pskip=1 / chroma_qp_offset=-2 / threads=8 / sliced_threads=0 / nr=0 / decimate=1 / interlaced=0 / bluray_compat=0 / constrained_intra=0 / bframes=0 / weightp=2 / keyint=48 / keyint_min=25 / scenecut=0 / intra_refresh=0 / rc=abr / mbtree=0 / bitrate=4096 / ratetol=1.0 / qcomp=0.60 / qpmin=10 / qpmax=51 / qpstep=4 / ip_ratio=1.40 / aq=1:1.00
Default : Yes
Forced : No

Audio
ID : 2
Format : AAC
Format/Info : Advanced Audio Codec
Format profile : LC
Codec ID : A_AAC-2
Duration : 43 min 23 s
Bit rate : 76.3 kb/s
Channel(s) : 2 channels
Channel positions : Front: L R
Sampling rate : 44.1 kHz
Frame rate : 43.066 FPS (1024 SPF)
Compression mode : Lossy
Stream size : 23.7 MiB (2%)
Default : Yes
Forced : No





Married to Medicine S05E07


Married to Medicine S05E07


Married to Medicine S05E07


Married to Medicine S05E07


Married to Medicine S05E07

All episodes