Marvel's Agents of S.H.I.E.L.D. S04E22

Posted By: Tavaz
720p (HD) / WEBRip IMDb
Marvel's Agents of S.H.I.E.L.D. S04E22

Marvel's Agents of S.H.I.E.L.D. S04E22
WEB-DL | MKV | 1280x720 | German / English | H264 @ 4183 kbps | AC-3 @ 384 kbps | 41 min 14 s | 1.46 GiB
Genre: Fantasy, Drama, Action, Abenteuer, Science Fiction

Marvel’s Agents of S.H.I.E.L.D. ist eine US-amerikanische Fernsehserie, die Teil des Marvel Cinematic Universe ist. Sie wurde von den Brüdern Joss und Jed Whedon und Maurissa Tancharoen entwickelt und handelt von der fiktiven Marvel-Geheimdienstorganisation S.H.I.E.L.D., deren Hauptfigur der von Clark Gregg gespielte Phil Coulson ist.

AOS S04E22 German DL 720p.mkv (1.5 GB)



General
Unique ID : 325344622530254002485794431880803741928 (0xF4C318570211130D491A0743914170E8)
Complete name : ./Ausschau nach Menschen mit Superkraeften S04E22 - German - HD/AOS S04E22 German DL 720p.mkv
Format : Matroska
Format version : Version 2
File size : 1.46 GiB
Duration : 41 min 14 s
Overall bit rate : 5 052 kb/s
Movie name : Marvels.Agents.of.S.H.I.E.L.D.S04E22.World.s.End.GERMAN.DUBBED.DL.720p.WebHD.x264-TVP
Encoded date : UTC 2017-12-08 21:03:35
Writing application : mkvmerge v5.6.0 ('Kenya Kane') built on May 28 2012 06:47:39
Writing library : libebml v1.2.2 + libmatroska v1.3.0

Video
ID : 1
Format : AVC
Format/Info : Advanced Video Codec
Format profile : High@L3.1
Format settings : 2 Ref Frames
Format settings, CABAC : No
Format settings, RefFrames : 2 frames
Codec ID : V_MPEG4/ISO/AVC
Duration : 41 min 14 s
Bit rate : 4 184 kb/s
Width : 1 280 pixels
Height : 720 pixels
Display aspect ratio : 16:9
Frame rate mode : Constant
Frame rate : 25.000 FPS
Color space : YUV
Chroma subsampling : 4:2:0
Bit depth : 8 bits
Scan type : Progressive
Bits/(Pixel*Frame) : 0.182
Stream size : 1.21 GiB (83%)
Title : tvp-shield-s04e22-720p
Language : German
Default : Yes
Forced : Yes
Color range : Limited
Color primaries : BT.709
Transfer characteristics : BT.709
Matrix coefficients : BT.709

Audio #1
ID : 2
Format : AC-3
Format/Info : Audio Coding 3
Format settings, Endianness : Big
Codec ID : A_AC3
Duration : 41 min 14 s
Bit rate mode : Constant
Bit rate : 384 kb/s
Channel(s) : 6 channels
Channel positions : Front: L C R, Side: L R, LFE
Sampling rate : 48.0 kHz
Frame rate : 31.250 FPS (1536 SPF)
Bit depth : 16 bits
Compression mode : Lossy
Stream size : 113 MiB (8%)
Language : German
Service kind : Complete Main
Default : Yes
Forced : Yes

Audio #2
ID : 3
Format : AC-3
Format/Info : Audio Coding 3
Format settings, Endianness : Big
Codec ID : A_AC3
Duration : 41 min 14 s
Bit rate mode : Constant
Bit rate : 384 kb/s
Channel(s) : 6 channels
Channel positions : Front: L C R, Side: L R, LFE
Sampling rate : 48.0 kHz
Frame rate : 31.250 FPS (1536 SPF)
Bit depth : 16 bits
Compression mode : Lossy
Stream size : 113 MiB (8%)
Language : English
Service kind : Complete Main
Default : No
Forced : No





Marvel's Agents of S.H.I.E.L.D. S04E22


Marvel's Agents of S.H.I.E.L.D. S04E22


Marvel's Agents of S.H.I.E.L.D. S04E22


Marvel's Agents of S.H.I.E.L.D. S04E22


Marvel's Agents of S.H.I.E.L.D. S04E22

All episodes